  0
SECTION
  2
HEADER
  9
$ACADVER
  1
AC1024
  9
$ACADMAINTVER
 70
    63
  9
$DWGCODEPAGE
  3
ANSI_932
  9
$LASTSAVEDBY
  1
TAISEI_05
  9
$INSBASE
 10
0.0
 20
0.0
 30
0.0
  9
$EXTMIN
 10
0.5039256968550136
 20
-11.72360934778809
 30
0.0
  9
$EXTMAX
 10
142.2131621480327
 20
99.24348293479823
 30
0.0
  9
$LIMMIN
 10
0.0
 20
0.0
  9
$LIMMAX
 10
420.0
 20
297.0
  9
$ORTHOMODE
 70
     1
  9
$REGENMODE
 70
     1
  9
$FILLMODE
 70
     1
  9
$QTEXTMODE
 70
     0
  9
$MIRRTEXT
 70
     1
  9
$LTSCALE
 40
1.0
  9
$ATTMODE
 70
     1
  9
$TEXTSIZE
 40
2.5
  9
$TRACEWID
 40
1.0
  9
$TEXTSTYLE
  7
Standard
  9
$CLAYER
  8
寸法線
  9
$CELTYPE
  6
ByLayer
  9
$CECOLOR
 62
   256
  9
$CELTSCALE
 40
1.0
  9
$DISPSILH
 70
     0
  9
$DIMSCALE
 40
1.0
  9
$DIMASZ
 40
1.0
  9
$DIMEXO
 40
0.625
  9
$DIMDLI
 40
3.75
  9
$DIMRND
 40
0.0
  9
$DIMDLE
 40
0.0
  9
$DIMEXE
 40
1.25
  9
$DIMTP
 40
0.0
  9
$DIMTM
 40
0.0
  9
$DIMTXT
 40
2.5
  9
$DIMCEN
 40
2.5
  9
$DIMTSZ
 40
0.0
  9
$DIMTOL
 70
     0
  9
$DIMLIM
 70
     0
  9
$DIMTIH
 70
     0
  9
$DIMTOH
 70
     0
  9
$DIMSE1
 70
     0
  9
$DIMSE2
 70
     0
  9
$DIMTAD
 70
     1
  9
$DIMZIN
 70
     8
  9
$DIMBLK
  1
DotSmall
  9
$DIMASO
 70
     1
  9
$DIMSHO
 70
     1
  9
$DIMPOST
  1

  9
$DIMAPOST
  1

  9
$DIMALT
 70
     0
  9
$DIMALTD
 70
     3
  9
$DIMALTF
 40
0.03937007874016
  9
$DIMLFAC
 40
1.0
  9
$DIMTOFL
 70
     1
  9
$DIMTVP
 40
0.0
  9
$DIMTIX
 70
     0
  9
$DIMSOXD
 70
     0
  9
$DIMSAH
 70
     0
  9
$DIMBLK1
  1

  9
$DIMBLK2
  1

  9
$DIMSTYLE
  2
ISO-25
  9
$DIMCLRD
 70
     0
  9
$DIMCLRE
 70
     0
  9
$DIMCLRT
 70
     0
  9
$DIMTFAC
 40
1.0
  9
$DIMGAP
 40
0.3
  9
$DIMJUST
 70
     0
  9
$DIMSD1
 70
     0
  9
$DIMSD2
 70
     0
  9
$DIMTOLJ
 70
     0
  9
$DIMTZIN
 70
     8
  9
$DIMALTZ
 70
     0
  9
$DIMALTTZ
 70
     0
  9
$DIMUPT
 70
     0
  9
$DIMDEC
 70
     2
  9
$DIMTDEC
 70
     2
  9
$DIMALTU
 70
     2
  9
$DIMALTTD
 70
     3
  9
$DIMTXSTY
  7
Standard
  9
$DIMAUNIT
 70
     0
  9
$DIMADEC
 70
     0
  9
$DIMALTRND
 40
0.0
  9
$DIMAZIN
 70
     0
  9
$DIMDSEP
 70
    46
  9
$DIMATFIT
 70
     3
  9
$DIMFRAC
 70
     0
  9
$DIMLDRBLK
  1
Open30
  9
$DIMLUNIT
 70
     2
  9
$DIMLWD
 70
    -2
  9
$DIMLWE
 70
    -2
  9
$DIMTMOVE
 70
     0
  9
$DIMFXL
 40
1.0
  9
$DIMFXLON
 70
     0
  9
$DIMJOGANG
 40
0.7853981633974483
  9
$DIMTFILL
 70
     0
  9
$DIMTFILLCLR
 70
     0
  9
$DIMARCSYM
 70
     0
  9
$DIMLTYPE
  6

  9
$DIMLTEX1
  6

  9
$DIMLTEX2
  6

  9
$DIMTXTDIRECTION
 70
     0
  9
$LUNITS
 70
     2
  9
$LUPREC
 70
     4
  9
$SKETCHINC
 40
1.0
  9
$FILLETRAD
 40
0.3
  9
$AUNITS
 70
     0
  9
$AUPREC
 70
     0
  9
$MENU
  1
.
  9
$ELEVATION
 40
0.0
  9
$PELEVATION
 40
0.0
  9
$THICKNESS
 40
0.0
  9
$LIMCHECK
 70
     0
  9
$CHAMFERA
 40
10.0
  9
$CHAMFERB
 40
10.0
  9
$CHAMFERC
 40
20.0
  9
$CHAMFERD
 40
0.0
  9
$SKPOLY
 70
     0
  9
$TDCREATE
 40
2452068.404706713
  9
$TDUCREATE
 40
2452068.029706713
  9
$TDUPDATE
 40
2459391.615706331
  9
$TDUUPDATE
 40
2459391.240706331
  9
$TDINDWG
 40
0.2576543750
  9
$TDUSRTIMER
 40
0.2576537963
  9
$USRTIMER
 70
     1
  9
$ANGBASE
 50
0.0
  9
$ANGDIR
 70
     0
  9
$PDMODE
 70
     0
  9
$PDSIZE
 40
0.0
  9
$PLINEWID
 40
0.0
  9
$SPLFRAME
 70
     0
  9
$SPLINETYPE
 70
     6
  9
$SPLINESEGS
 70
     8
  9
$HANDSEED
  5
934
  9
$SURFTAB1
 70
     6
  9
$SURFTAB2
 70
     6
  9
$SURFTYPE
 70
     6
  9
$SURFU
 70
     6
  9
$SURFV
 70
     6
  9
$UCSBASE
  2

  9
$UCSNAME
  2

  9
$UCSORG
 10
0.0
 20
0.0
 30
0.0
  9
$UCSXDIR
 10
1.0
 20
0.0
 30
0.0
  9
$UCSYDIR
 10
0.0
 20
1.0
 30
0.0
  9
$UCSORTHOREF
  2

  9
$UCSORTHOVIEW
 70
     0
  9
$UCSORGTOP
 10
0.0
 20
0.0
 30
0.0
  9
$UCSORGBOTTOM
 10
0.0
 20
0.0
 30
0.0
  9
$UCSORGLEFT
 10
0.0
 20
0.0
 30
0.0
  9
$UCSORGRIGHT
 10
0.0
 20
0.0
 30
0.0
  9
$UCSORGFRONT
 10
0.0
 20
0.0
 30
0.0
  9
$UCSORGBACK
 10
0.0
 20
0.0
 30
0.0
  9
$PUCSBASE
  2

  9
$PUCSNAME
  2

  9
$PUCSORG
 10
0.0
 20
0.0
 30
0.0
  9
$PUCSXDIR
 10
1.0
 20
0.0
 30
0.0
  9
$PUCSYDIR
 10
0.0
 20
1.0
 30
0.0
  9
$PUCSORTHOREF
  2

  9
$PUCSORTHOVIEW
 70
     0
  9
$PUCSORGTOP
 10
0.0
 20
0.0
 30
0.0
  9
$PUCSORGBOTTOM
 10
0.0
 20
0.0
 30
0.0
  9
$PUCSORGLEFT
 10
0.0
 20
0.0
 30
0.0
  9
$PUCSORGRIGHT
 10
0.0
 20
0.0
 30
0.0
  9
$PUCSORGFRONT
 10
0.0
 20
0.0
 30
0.0
  9
$PUCSORGBACK
 10
0.0
 20
0.0
 30
0.0
  9
$USERI1
 70
     0
  9
$USERI2
 70
     0
  9
$USERI3
 70
     0
  9
$USERI4
 70
     0
  9
$USERI5
 70
     0
  9
$USERR1
 40
0.0
  9
$USERR2
 40
0.0
  9
$USERR3
 40
0.0
  9
$USERR4
 40
0.0
  9
$USERR5
 40
0.0
  9
$WORLDVIEW
 70
     1
  9
$SHADEDGE
 70
     3
  9
$SHADEDIF
 70
    70
  9
$TILEMODE
 70
     1
  9
$MAXACTVP
 70
    64
  9
$PINSBASE
 10
0.0
 20
0.0
 30
0.0
  9
$PLIMCHECK
 70
     0
  9
$PEXTMIN
 10
0.0
 20
0.0
 30
0.0
  9
$PEXTMAX
 10
0.0
 20
0.0
 30
0.0
  9
$PLIMMIN
 10
0.0
 20
0.0
  9
$PLIMMAX
 10
12.0
 20
9.0
  9
$UNITMODE
 70
     0
  9
$VISRETAIN
 70
     1
  9
$PLINEGEN
 70
     0
  9
$PSLTSCALE
 70
     1
  9
$TREEDEPTH
 70
  3020
  9
$CMLSTYLE
  2
Standard
  9
$CMLJUST
 70
     0
  9
$CMLSCALE
 40
20.0
  9
$PROXYGRAPHICS
 70
     1
  9
$MEASUREMENT
 70
     1
  9
$CELWEIGHT
370
    -1
  9
$ENDCAPS
280
     0
  9
$JOINSTYLE
280
     0
  9
$LWDISPLAY
290
     0
  9
$INSUNITS
 70
     4
  9
$HYPERLINKBASE
  1

  9
$STYLESHEET
  1

  9
$XEDIT
290
     1
  9
$CEPSNTYPE
380
     0
  9
$PSTYLEMODE
290
     1
  9
$FINGERPRINTGUID
  2
{AB02FA9B-50CF-45AC-B676-3287A2258586}
  9
$VERSIONGUID
  2
{598E4F3B-D752-499E-946C-4C945978BD35}
  9
$EXTNAMES
290
     1
  9
$PSVPSCALE
 40
0.0
  9
$OLESTARTUP
290
     0
  9
$SORTENTS
280
   127
  9
$INDEXCTL
280
     0
  9
$HIDETEXT
280
     0
  9
$XCLIPFRAME
280
     2
  9
$HALOGAP
280
     0
  9
$OBSCOLOR
 70
   257
  9
$OBSLTYPE
280
     0
  9
$INTERSECTIONDISPLAY
280
     0
  9
$INTERSECTIONCOLOR
 70
   257
  9
$DIMASSOC
280
     1
  9
$PROJECTNAME
  1

  9
$CAMERADISPLAY
290
     0
  9
$LENSLENGTH
 40
50.0
  9
$CAMERAHEIGHT
 40
0.0
  9
$STEPSPERSEC
 40
2.0
  9
$STEPSIZE
 40
6.0
  9
$3DDWFPREC
 40
2.0
  9
$PSOLWIDTH
 40
0.25
  9
$PSOLHEIGHT
 40
4.0
  9
$LOFTANG1
 40
1.570796326794896
  9
$LOFTANG2
 40
1.570796326794896
  9
$LOFTMAG1
 40
0.0
  9
$LOFTMAG2
 40
0.0
  9
$LOFTPARAM
 70
     7
  9
$LOFTNORMALS
280
     1
  9
$LATITUDE
 40
37.795
  9
$LONGITUDE
 40
-122.394
  9
$NORTHDIRECTION
 40
0.0
  9
$TIMEZONE
 70
 -8000
  9
$LIGHTGLYPHDISPLAY
280
     1
  9
$TILEMODELIGHTSYNCH
280
     1
  9
$CMATERIAL
347
667
  9
$SOLIDHIST
280
     0
  9
$SHOWHIST
280
     1
  9
$DWFFRAME
280
     2
  9
$DGNFRAME
280
     0
  9
$REALWORLDSCALE
290
     1
  9
$INTERFERECOLOR
 62
     1
  9
$INTERFEREOBJVS
345
689
  9
$INTERFEREVPVS
346
686
  9
$CSHADOW
280
     0
  9
$SHADOWPLANELOCATION
 40
0.0
  0
ENDSEC
  0
SECTION
  2
CLASSES
  0
CLASS
  1
ACDBDICTIONARYWDFLT
  2
AcDbDictionaryWithDefault
  3
ObjectDBX Classes
 90
        0
 91
        1
280
     0
281
     0
  0
CLASS
  1
MATERIAL
  2
AcDbMaterial
  3
ObjectDBX Classes
 90
     1153
 91
        3
280
     0
281
     0
  0
CLASS
  1
VISUALSTYLE
  2
AcDbVisualStyle
  3
ObjectDBX Classes
 90
     4095
 91
       24
280
     0
281
     0
  0
CLASS
  1
TABLESTYLE
  2
AcDbTableStyle
  3
ObjectDBX Classes
 90
     4095
 91
        1
280
     0
281
     0
  0
CLASS
  1
SCALE
  2
AcDbScale
  3
ObjectDBX Classes
 90
     1153
 91
       17
280
     0
281
     0
  0
CLASS
  1
MLEADERSTYLE
  2
AcDbMLeaderStyle
  3
ACDB_MLEADERSTYLE_CLASS
 90
     4095
 91
        1
280
     0
281
     0
  0
CLASS
  1
DICTIONARYVAR
  2
AcDbDictionaryVar
  3
ObjectDBX Classes
 90
        0
 91
        7
280
     0
281
     0
  0
CLASS
  1
SORTENTSTABLE
  2
AcDbSortentsTable
  3
ObjectDBX Classes
 90
        0
 91
        1
280
     0
281
     0
  0
CLASS
  1
CELLSTYLEMAP
  2
AcDbCellStyleMap
  3
ObjectDBX Classes
 90
     1152
 91
        1
280
     0
281
     0
  0
ENDSEC
  0
SECTION
  2
TABLES
  0
TABLE
  2
VPORT
  5
8
330
0
100
AcDbSymbolTable
 70
     1
  0
VPORT
  5
664
330
8
100
AcDbSymbolTableRecord
100
AcDbViewportTableRecord
  2
*Active
 70
     0
 10
0.0
 20
0.0
 11
1.0
 21
1.0
 12
117.7075212508257
 22
51.04941585409256
 13
0.0
 23
0.0
 14
0.5
 24
0.5
 15
1.0
 25
1.0
 16
0.0
 26
0.0
 36
1.0
 17
0.0
 27
0.0
 37
0.0
 40
159.3463989502886
 41
2.435732647814909
 42
50.0
 43
0.0
 44
0.0
 50
0.0
 51
0.0
 71
     0
 72
   100
 73
     1
 74
     3
 75
     0
 76
     0
 77
     0
 78
     0
281
     0
 65
     1
110
0.0
120
0.0
130
0.0
111
1.0
121
0.0
131
0.0
112
0.0
122
1.0
132
0.0
 79
     0
146
0.0
348
685
 60
     3
 61
     5
292
     1
282
     1
141
0.0
142
0.0
 63
   250
421
  3355443
1001
ACAD_NAV_VCDISPLAY
1070
     3
  0
ENDTAB
  0
TABLE
  2
LTYPE
  5
5
330
0
100
AcDbSymbolTable
 70
     3
  0
LTYPE
  5
14
330
5
100
AcDbSymbolTableRecord
100
AcDbLinetypeTableRecord
  2
ByBlock
 70
     0
  3

 72
    65
 73
     0
 40
0.0
  0
LTYPE
  5
15
330
5
100
AcDbSymbolTableRecord
100
AcDbLinetypeTableRecord
  2
ByLayer
 70
     0
  3

 72
    65
 73
     0
 40
0.0
  0
LTYPE
  5
16
330
5
100
AcDbSymbolTableRecord
100
AcDbLinetypeTableRecord
  2
Continuous
 70
     0
  3
Solid line
 72
    65
 73
     0
 40
0.0
  0
LTYPE
  5
2D
330
5
100
AcDbSymbolTableRecord
100
AcDbLinetypeTableRecord
  2
CENTER
 70
     0
  3
Center ____ _ ____ _ ____ _ ____ _ ____ _ ____
 72
    65
 73
     4
 40
50.8
 49
31.75
 74
     0
 49
-6.349999999999999
 74
     0
 49
6.349999999999999
 74
     0
 49
-6.349999999999999
 74
     0
  0
LTYPE
  5
2E
330
5
100
AcDbSymbolTableRecord
100
AcDbLinetypeTableRecord
  2
HIDDEN
 70
     0
  3
Hidden __ __ __ __ __ __ __ __ __ __ __ __ __ _
 72
    65
 73
     2
 40
9.524999999999998
 49
6.349999999999999
 74
     0
 49
-3.174999999999999
 74
     0
  0
ENDTAB
  0
TABLE
  2
LAYER
  5
2
102
{ACAD_XDICTIONARY
360
6B8
102
}
330
0
100
AcDbSymbolTable
 70
     8
  0
LAYER
  5
10
102
{ACAD_XDICTIONARY
360
6F4
102
}
330
2
100
AcDbSymbolTableRecord
100
AcDbLayerTableRecord
  2
0
 70
     0
 62
     7
  6
Continuous
370
    -3
390
F
347
677
  0
LAYER
  5
2F
102
{ACAD_XDICTIONARY
360
6F6
102
}
330
2
100
AcDbSymbolTableRecord
100
AcDbLayerTableRecord
  2
実線
 70
     0
 62
     7
  6
Continuous
370
    30
390
F
347
677
  0
LAYER
  5
30
102
{ACAD_XDICTIONARY
360
6F8
102
}
330
2
100
AcDbSymbolTableRecord
100
AcDbLayerTableRecord
  2
中心線
 70
     0
 62
     7
  6
CENTER
370
    -3
390
F
347
677
  0
LAYER
  5
31
102
{ACAD_XDICTIONARY
360
6FA
102
}
330
2
100
AcDbSymbolTableRecord
100
AcDbLayerTableRecord
  2
寸法線
 70
     0
 62
     7
  6
Continuous
370
    -3
390
F
347
677
  0
LAYER
  5
32
102
{ACAD_XDICTIONARY
360
6FC
102
}
330
2
100
AcDbSymbolTableRecord
100
AcDbLayerTableRecord
  2
破線
 70
     0
 62
     7
  6
HIDDEN
370
    -3
390
F
347
677
  0
LAYER
  5
33
102
{ACAD_XDICTIONARY
360
6FE
102
}
330
2
100
AcDbSymbolTableRecord
100
AcDbLayerTableRecord
  2
文字
 70
     0
 62
     7
  6
Continuous
370
    -3
390
F
347
677
  0
LAYER
  5
34
102
{ACAD_XDICTIONARY
360
700
102
}
330
2
100
AcDbSymbolTableRecord
100
AcDbLayerTableRecord
  2
細線
 70
     0
 62
     7
  6
Continuous
370
    15
390
F
347
677
  0
LAYER
  5
A6
330
2
100
AcDbSymbolTableRecord
100
AcDbLayerTableRecord
  2
Defpoints
 70
     0
 62
     7
  6
Continuous
290
     0
370
    -3
390
F
347
677
  0
ENDTAB
  0
TABLE
  2
STYLE
  5
3
330
0
100
AcDbSymbolTable
 70
     2
  0
STYLE
  5
11
330
3
100
AcDbSymbolTableRecord
100
AcDbTextStyleTableRecord
  2
Standard
 70
     0
 40
0.0
 41
1.0
 50
0.0
 71
     0
 42
2.5
  3
txt
  4

  0
STYLE
  5
2C
330
3
100
AcDbSymbolTableRecord
100
AcDbTextStyleTableRecord
  2

 70
     1
 40
0.0
 41
1.0
 50
0.0
 71
     0
 42
2.5
  3
ltypeshp.shx
  4

  0
ENDTAB
  0
TABLE
  2
VIEW
  5
6
330
0
100
AcDbSymbolTable
 70
     0
  0
ENDTAB
  0
TABLE
  2
UCS
  5
7
330
0
100
AcDbSymbolTable
 70
     0
  0
ENDTAB
  0
TABLE
  2
APPID
  5
9
330
0
100
AcDbSymbolTable
 70
     4
  0
APPID
  5
12
330
9
100
AcDbSymbolTableRecord
100
AcDbRegAppTableRecord
  2
ACAD
 70
     0
  0
APPID
  5
6BF
330
9
100
AcDbSymbolTableRecord
100
AcDbRegAppTableRecord
  2
ACAD_NAV_VCDISPLAY
 70
     0
  0
APPID
  5
6C9
330
9
100
AcDbSymbolTableRecord
100
AcDbRegAppTableRecord
  2
ACAD_EXEMPT_FROM_CAD_STANDARDS
 70
     0
  0
APPID
  5
6D8
330
9
100
AcDbSymbolTableRecord
100
AcDbRegAppTableRecord
  2
ACAD_PSEXT
 70
     0
  0
ENDTAB
  0
TABLE
  2
DIMSTYLE
  5
A
330
0
100
AcDbSymbolTable
 70
     1
100
AcDbDimStyleTable
 71
     1
340
27
  0
DIMSTYLE
105
27
102
{ACAD_REACTORS
330
7A6
330
7D1
330
7E7
330
7F5
330
804
330
812
330
81F
330
849
330
858
330
865
330
872
330
89C
330
8AA
330
8B7
330
8D5
102
}
330
A
100
AcDbSymbolTableRecord
100
AcDbDimStyleTableRecord
  2
ISO-25
 70
     0
 41
2.5
 42
0.625
 43
3.75
 44
1.25
 73
     0
 74
     0
 77
     1
 78
     8
140
2.5
141
2.5
143
0.03937007874016
147
0.625
171
     3
172
     1
271
     2
272
     2
274
     3
283
     0
284
     8
340
11
  0
ENDTAB
  0
TABLE
  2
BLOCK_RECORD
  5
1
330
0
100
AcDbSymbolTable
 70
    44
  0
BLOCK_RECORD
  5
1F
102
{ACAD_XDICTIONARY
360
781
102
}
330
1
100
AcDbSymbolTableRecord
100
AcDbBlockTableRecord
  2
*Model_Space
340
22
 70
     0
280
     1
281
     0
  0
BLOCK_RECORD
  5
91C
330
1
100
AcDbSymbolTableRecord
100
AcDbBlockTableRecord
  2
*Paper_Space
340
91D
 70
     0
280
     1
281
     0
  0
BLOCK_RECORD
  5
78
330
1
100
AcDbSymbolTableRecord
100
AcDbBlockTableRecord
  2
A$C5CD06A30
340
0
 70
     0
280
     1
281
     0
  0
BLOCK_RECORD
  5
B3
330
1
100
AcDbSymbolTableRecord
100
AcDbBlockTableRecord
  2
_Open30
340
0
 70
     0
280
     1
281
     0
  0
BLOCK_RECORD
  5
B9
330
1
100
AcDbSymbolTableRecord
100
AcDbBlockTableRecord
  2
_DotSmall
340
0
102
{BLKREFS
331
445
331
446
331
485
331
486
331
4C1
331
4C2
331
4D5
331
4D6
331
4F2
331
4F3
331
50C
331
50D
331
519
331
51A
331
526
331
527
331
533
331
534
331
541
331
542
331
565
331
566
331
573
331
574
331
580
331
581
331
792
331
793
331
7AD
331
7AE
331
7BE
331
7BF
331
7CB
331
7CC
331
7E1
331
7E2
331
7EF
331
7F0
331
7FF
331
800
331
80C
331
80D
331
819
331
81A
331
826
331
827
331
836
331
837
331
842
331
843
331
85F
331
860
331
86C
331
86D
331
88B
331
88C
331
897
331
898
331
8A4
331
8A5
331
8B1
331
8B2
331
8BF
331
8C0
331
8CD
331
8CE
331
8F8
331
8F9
102
}
 70
     0
280
     1
281
     0
  0
BLOCK_RECORD
  5
174
330
1
100
AcDbSymbolTableRecord
100
AcDbBlockTableRecord
  2
A$C0836503F
340
0
 70
     0
280
     1
281
     0
  0
BLOCK_RECORD
  5
1B8
330
1
100
AcDbSymbolTableRecord
100
AcDbBlockTableRecord
  2
A$C09ED172C
340
0
 70
     0
280
     1
281
     0
  0
BLOCK_RECORD
  5
230
330
1
100
AcDbSymbolTableRecord
100
AcDbBlockTableRecord
  2
A$C079A643F
340
0
 70
     0
280
     1
281
     0
  0
BLOCK_RECORD
  5
2B4
330
1
100
AcDbSymbolTableRecord
100
AcDbBlockTableRecord
  2
A$C21311BA8
340
0
 70
     0
280
     1
281
     0
  0
BLOCK_RECORD
  5
323
330
1
100
AcDbSymbolTableRecord
100
AcDbBlockTableRecord
  2
A$C5A930C52
340
0
 70
     0
280
     1
281
     0
  0
BLOCK_RECORD
  5
394
330
1
100
AcDbSymbolTableRecord
100
AcDbBlockTableRecord
  2
A$C7F4252DC
340
0
 70
     0
280
     1
281
     0
  0
BLOCK_RECORD
  5
40F
330
1
100
AcDbSymbolTableRecord
100
AcDbBlockTableRecord
  2
A$C68CD0280
340
0
 70
     0
280
     1
281
     0
  0
BLOCK_RECORD
  5
7A7
330
1
100
AcDbSymbolTableRecord
100
AcDbBlockTableRecord
  2
*D24
340
0
 70
     0
280
     1
281
     0
  0
BLOCK_RECORD
  5
7D2
330
1
100
AcDbSymbolTableRecord
100
AcDbBlockTableRecord
  2
*D27
340
0
 70
     0
280
     1
281
     0
  0
BLOCK_RECORD
  5
7E8
330
1
100
AcDbSymbolTableRecord
100
AcDbBlockTableRecord
  2
*D28
340
0
 70
     0
280
     1
281
     0
  0
BLOCK_RECORD
  5
7F6
330
1
100
AcDbSymbolTableRecord
100
AcDbBlockTableRecord
  2
*D29
340
0
 70
     0
280
     1
281
     0
  0
BLOCK_RECORD
  5
805
330
1
100
AcDbSymbolTableRecord
100
AcDbBlockTableRecord
  2
*D30
340
0
 70
     0
280
     1
281
     0
  0
BLOCK_RECORD
  5
813
330
1
100
AcDbSymbolTableRecord
100
AcDbBlockTableRecord
  2
*D31
340
0
 70
     0
280
     1
281
     0
  0
BLOCK_RECORD
  5
820
330
1
100
AcDbSymbolTableRecord
100
AcDbBlockTableRecord
  2
*D32
340
0
 70
     0
280
     1
281
     0
  0
BLOCK_RECORD
  5
84A
330
1
100
AcDbSymbolTableRecord
100
AcDbBlockTableRecord
  2
*D35
340
0
 70
     0
280
     1
281
     0
  0
BLOCK_RECORD
  5
859
330
1
100
AcDbSymbolTableRecord
100
AcDbBlockTableRecord
  2
*D36
340
0
 70
     0
280
     1
281
     0
  0
BLOCK_RECORD
  5
866
330
1
100
AcDbSymbolTableRecord
100
AcDbBlockTableRecord
  2
*D37
340
0
 70
     0
280
     1
281
     0
  0
BLOCK_RECORD
  5
873
330
1
100
AcDbSymbolTableRecord
100
AcDbBlockTableRecord
  2
*D38
340
0
 70
     0
280
     1
281
     0
  0
BLOCK_RECORD
  5
89D
330
1
100
AcDbSymbolTableRecord
100
AcDbBlockTableRecord
  2
*D39
340
0
 70
     0
280
     1
281
     0
  0
BLOCK_RECORD
  5
8AB
330
1
100
AcDbSymbolTableRecord
100
AcDbBlockTableRecord
  2
*D40
340
0
 70
     0
280
     1
281
     0
  0
BLOCK_RECORD
  5
8B8
330
1
100
AcDbSymbolTableRecord
100
AcDbBlockTableRecord
  2
*D41
340
0
 70
     0
280
     1
281
     0
  0
BLOCK_RECORD
  5
8D6
330
1
100
AcDbSymbolTableRecord
100
AcDbBlockTableRecord
  2
*D43
340
0
 70
     0
280
     1
281
     0
  0
ENDTAB
  0
ENDSEC
  0
SECTION
  2
BLOCKS
  0
BLOCK
  5
20
330
1F
100
AcDbEntity
  8
0
100
AcDbBlockBegin
  2
*Model_Space
 70
     0
 10
0.0
 20
0.0
 30
0.0
  3
*Model_Space
  1

  0
ENDBLK
  5
21
330
1F
100
AcDbEntity
  8
0
100
AcDbBlockEnd
  0
BLOCK
  5
91E
330
91C
100
AcDbEntity
 67
     1
  8
0
100
AcDbBlockBegin
  2
*Paper_Space
 70
     0
 10
0.0
 20
0.0
 30
0.0
  3
*Paper_Space
  1

  0
ENDBLK
  5
91F
330
91C
100
AcDbEntity
 67
     1
  8
0
100
AcDbBlockEnd
  0
BLOCK
  5
80
330
78
100
AcDbEntity
  8
0
100
AcDbBlockBegin
  2
A$C5CD06A30
 70
     0
 10
0.0
 20
0.0
 30
0.0
  3
A$C5CD06A30
  1

  0
ARC
  5
79
330
78
100
AcDbEntity
  8
0
100
AcDbCircle
 10
0.0
 20
0.2999999999999971
 30
0.0
 40
0.2999999999999971
100
AcDbArc
 50
180.0000000000057
 51
359.9999999999943
  0
ARC
  5
7A
330
78
100
AcDbEntity
  8
0
100
AcDbCircle
 10
0.5500000000000114
 20
0.2999999999999687
 30
0.0
 40
0.2000000000000028
100
AcDbArc
 50
0.0
 51
90.0
  0
ARC
  5
7B
330
78
100
AcDbEntity
  8
0
100
AcDbCircle
 10
-0.549999999999983
 20
0.2999999999999687
 30
0.0
 40
0.2000000000000028
100
AcDbArc
 50
90.0
 51
180.0
  0
ARC
  5
7C
330
78
100
AcDbEntity
  8
0
100
AcDbCircle
 10
0.5000000000000285
 20
0.2999999999999687
 30
0.0
 40
0.1999999999999886
100
AcDbArc
 50
90.0
 51
180.0
  0
ARC
  5
7D
330
78
100
AcDbEntity
  8
0
100
AcDbCircle
 10
-0.4999999999999716
 20
0.2999999999999687
 30
0.0
 40
0.1999999999999886
100
AcDbArc
 50
0.0
 51
90.0
  0
LINE
  5
7E
330
78
100
AcDbEntity
  8
0
100
AcDbLine
 10
0.5
 20
0.499999999999929
 30
0.0
 11
0.5500000000000114
 21
0.499999999999929
 31
0.0
  0
LINE
  5
7F
330
78
100
AcDbEntity
  8
0
100
AcDbLine
 10
-0.549999999999983
 20
0.4999999999999574
 30
0.0
 11
-0.5
 21
0.4999999999999574
 31
0.0
  0
ENDBLK
  5
81
330
78
100
AcDbEntity
  8
0
100
AcDbBlockEnd
  0
BLOCK
  5
B7
330
B3
100
AcDbEntity
  8
0
100
AcDbBlockBegin
  2
_Open30
 70
     0
 10
0.0
 20
0.0
 30
0.0
  3
_Open30
  1

  0
LINE
  5
B4
330
B3
100
AcDbEntity
  8
0
  6
ByBlock
 62
     0
370
    -2
100
AcDbLine
 10
-1.0
 20
0.26794919
 30
0.0
 11
0.0
 21
0.0
 31
0.0
  0
LINE
  5
B5
330
B3
100
AcDbEntity
  8
0
  6
ByBlock
 62
     0
370
    -2
100
AcDbLine
 10
0.0
 20
0.0
 30
0.0
 11
-1.0
 21
-0.26794919
 31
0.0
  0
LINE
  5
B6
330
B3
100
AcDbEntity
  8
0
  6
ByBlock
 62
     0
370
    -2
100
AcDbLine
 10
0.0
 20
0.0
 30
0.0
 11
-1.0
 21
0.0
 31
0.0
  0
ENDBLK
  5
B8
330
B3
100
AcDbEntity
  8
0
100
AcDbBlockEnd
  0
BLOCK
  5
BB
330
B9
100
AcDbEntity
  8
0
100
AcDbBlockBegin
  2
_DotSmall
 70
     0
 10
0.0
 20
0.0
 30
0.0
  3
_DotSmall
  1

  0
LWPOLYLINE
  5
BA
330
B9
100
AcDbEntity
  8
0
  6
ByBlock
 62
     0
100
AcDbPolyline
 90
        2
 70
     1
 43
0.5
 10
-0.0625
 20
0.0
 42
1.0
 10
0.0625
 20
0.0
 42
1.0
  0
ENDBLK
  5
BC
330
B9
100
AcDbEntity
  8
0
100
AcDbBlockEnd
  0
BLOCK
  5
17C
330
174
100
AcDbEntity
  8
0
100
AcDbBlockBegin
  2
A$C0836503F
 70
     0
 10
0.0
 20
0.0
 30
0.0
  3
A$C0836503F
  1

  0
LINE
  5
175
330
174
100
AcDbEntity
  8
実線
100
AcDbLine
 10
0.2496821964120386
 20
-0.0914246269164494
 30
0.0
 11
0.5703896038515382
 21
-0.412132034355949
 31
0.0
  0
ARC
  5
176
330
174
100
AcDbEntity
  8
実線
100
AcDbCircle
 10
-0.7825216382075553
 20
-0.200000000000017
 30
0.0
 40
0.3
100
AcDbArc
 50
270.0
 51
315.0
  0
LINE
  5
177
330
174
100
AcDbEntity
  8
実線
100
AcDbLine
 10
-0.249682196412067
 20
-0.0914246269165062
 30
0.0
 11
-0.570389603851595
 21
-0.4121320343559774
 31
0.0
  0
ARC
  5
178
330
174
100
AcDbEntity
  8
実線
100
AcDbCircle
 10
0.0
 20
-0.5
 30
0.0
 40
0.5
100
AcDbArc
 50
79.17844693206662
 51
100.8215530679433
  0
ARC
  5
179
330
174
100
AcDbEntity
  8
実線
100
AcDbCircle
 10
0.0375501620710566
 20
-0.3035566612520313
 30
0.0
 40
0.3
100
AcDbArc
 50
44.99999999927226
 51
79.17844693414544
  0
ARC
  5
17A
330
174
100
AcDbEntity
  8
実線
100
AcDbCircle
 10
-0.0375501620709429
 20
-0.3035566612523155
 30
0.0
 40
0.3
100
AcDbArc
 50
100.821553065881
 51
135.0000000007139
  0
ARC
  5
17B
330
174
100
AcDbEntity
  8
実線
100
AcDbCircle
 10
0.7825216382074985
 20
-0.200000000000017
 30
0.0
 40
0.3
100
AcDbArc
 50
225.0
 51
270.0
  0
ENDBLK
  5
17D
330
174
100
AcDbEntity
  8
0
100
AcDbBlockEnd
  0
BLOCK
  5
221
330
1B8
100
AcDbEntity
  8
0
100
AcDbBlockBegin
  2
A$C09ED172C
 70
     0
 10
0.0
 20
0.0
 30
0.0
  3
A$C09ED172C
  1

  0
LINE
  5
1B9
330
1B8
100
AcDbEntity
  8
実線
100
AcDbLine
 10
1.797918471982882
 20
4.202081528017089
 30
0.0
 11
1.797918471982825
 21
42.90208152801702
 31
0.0
  0
LINE
  5
1BA
330
1B8
100
AcDbEntity
  8
実線
100
AcDbLine
 10
3.497918471982842
 20
3.497918471982814
 30
0.0
 11
3.497918471982842
 21
41.20208152801706
 31
0.0
  0
LINE
  5
1BB
330
1B8
100
AcDbEntity
  8
実線
100
AcDbLine
 10
1.451040764008553
 20
1.451040764008524
 30
0.0
 11
3.497918471982842
 21
3.497918471982814
 31
0.0
  0
LINE
  5
1BC
330
1B8
100
AcDbEntity
  8
実線
100
AcDbLine
 10
0.2489592359914354
 20
2.653122292025642
 30
0.0
 11
1.797918471982882
 21
4.202081528017089
 31
0.0
  0
ARC
  5
1BD
330
1B8
100
AcDbEntity
  8
実線
100
AcDbCircle
 10
0.8499999999999943
 20
2.052081528017083
 30
0.0
 40
0.85
100
AcDbArc
 50
135.0
 51
315.0
  0
LINE
  5
1BE
330
1B8
100
AcDbEntity
  8
実線
100
AcDbLine
 10
5.90123758539633
 20
41.50208152801707
 30
0.0
 11
3.797918471982853
 21
41.50208152801707
 31
0.0
  0
ARC
  5
1BF
330
1B8
100
AcDbEntity
  8
実線
100
AcDbCircle
 10
2.097918471982836
 20
42.90208152801702
 30
0.0
 40
0.3
100
AcDbArc
 50
90.0
 51
180.0
  0
ARC
  5
1C0
330
1B8
100
AcDbEntity
  8
実線
100
AcDbCircle
 10
3.797918471982853
 20
41.20208152801706
 30
0.0
 40
0.3
100
AcDbArc
 50
90.0
 51
180.0
  0
LINE
  5
1C1
330
1B8
100
AcDbEntity
  8
実線
100
AcDbLine
 10
6.917918471982886
 20
41.0438239585215
 30
0.0
 11
7.331900181161785
 21
41.42324446224944
 31
0.0
  0
ARC
  5
1C2
330
1B8
100
AcDbEntity
  8
実線
100
AcDbCircle
 10
7.534599358569437
 20
41.20208152801708
 30
0.0
 40
0.3
100
AcDbArc
 50
90.0
 51
132.5057290122239
  0
ARC
  5
1C3
330
1B8
100
AcDbEntity
  8
実線
100
AcDbCircle
 10
6.717918471982898
 20
41.5020815280171
 30
0.0
 40
0.5
100
AcDbArc
 50
246.4218215217994
 51
293.5781784782005
  0
ARC
  5
1C4
330
1B8
100
AcDbEntity
  8
実線
100
AcDbCircle
 10
5.90123758539633
 20
41.20208152801706
 30
0.0
 40
0.3
100
AcDbArc
 50
47.49427098777609
 51
90.0
  0
LINE
  5
1C5
330
1B8
100
AcDbEntity
  8
実線
100
AcDbLine
 10
6.517918471982909
 20
41.0438239585215
 30
0.0
 11
6.103936762803982
 21
41.42324446224941
 31
0.0
  0
LINE
  5
1C6
330
1B8
100
AcDbEntity
  8
実線
100
AcDbLine
 10
57.86116858001398
 20
44.50208152801716
 30
0.0
 11
43.61097272196369
 21
44.50208152801707
 31
0.0
  0
LINE
  5
1C7
330
1B8
100
AcDbEntity
  8
実線
100
AcDbLine
 10
58.65740598818757
 20
46.20208152801711
 30
0.0
 11
51.31753371425407
 21
46.20208152801708
 31
0.0
  0
LINE
  5
1C8
330
1B8
100
AcDbEntity
  8
実線
100
AcDbLine
 10
39.59596033448577
 20
43.20208152801706
 30
0.0
 11
2.097918471982836
 21
43.20208152801703
 31
0.0
  0
LINE
  5
1C9
330
1B8
100
AcDbEntity
  8
実線
100
AcDbLine
 10
21.51791847198291
 20
41.0438239585215
 30
0.0
 11
21.10393676280398
 21
41.42324446224941
 31
0.0
  0
LINE
  5
1CA
330
1B8
100
AcDbEntity
  8
実線
100
AcDbLine
 10
12.91791847198288
 20
41.0438239585215
 30
0.0
 11
13.33190018116178
 21
41.42324446224944
 31
0.0
  0
LINE
  5
1CB
330
1B8
100
AcDbEntity
  8
実線
100
AcDbLine
 10
8.90123758539633
 20
41.50208152801707
 30
0.0
 11
7.534599358569437
 21
41.50208152801707
 31
0.0
  0
LINE
  5
1CC
330
1B8
100
AcDbEntity
  8
実線
100
AcDbLine
 10
12.51791847198291
 20
41.0438239585215
 30
0.0
 11
12.10393676280398
 21
41.42324446224941
 31
0.0
  0
ARC
  5
1CD
330
1B8
100
AcDbEntity
  8
実線
100
AcDbCircle
 10
11.90123758539633
 20
41.20208152801706
 30
0.0
 40
0.3
100
AcDbArc
 50
47.49427098777609
 51
90.0
  0
ARC
  5
1CE
330
1B8
100
AcDbEntity
  8
実線
100
AcDbCircle
 10
12.7179184719829
 20
41.5020815280171
 30
0.0
 40
0.5
100
AcDbArc
 50
246.4218215217994
 51
293.5781784782005
  0
ARC
  5
1CF
330
1B8
100
AcDbEntity
  8
実線
100
AcDbCircle
 10
10.53459935856944
 20
41.20208152801708
 30
0.0
 40
0.3
100
AcDbArc
 50
90.0
 51
132.5057290122239
  0
LINE
  5
1D0
330
1B8
100
AcDbEntity
  8
実線
100
AcDbLine
 10
11.90123758539633
 20
41.50208152801707
 30
0.0
 11
10.53459935856944
 21
41.5020815280171
 31
0.0
  0
LINE
  5
1D1
330
1B8
100
AcDbEntity
  8
実線
100
AcDbLine
 10
9.517918471982909
 20
41.0438239585215
 30
0.0
 11
9.103936762803982
 21
41.42324446224941
 31
0.0
  0
ARC
  5
1D2
330
1B8
100
AcDbEntity
  8
実線
100
AcDbCircle
 10
8.90123758539633
 20
41.20208152801706
 30
0.0
 40
0.3
100
AcDbArc
 50
47.49427098777609
 51
90.0
  0
ARC
  5
1D3
330
1B8
100
AcDbEntity
  8
実線
100
AcDbCircle
 10
9.717918471982898
 20
41.5020815280171
 30
0.0
 40
0.5
100
AcDbArc
 50
246.4218215217994
 51
293.5781784782005
  0
LINE
  5
1D4
330
1B8
100
AcDbEntity
  8
実線
100
AcDbLine
 10
9.917918471982886
 20
41.0438239585215
 30
0.0
 11
10.33190018116178
 21
41.42324446224944
 31
0.0
  0
LINE
  5
1D5
330
1B8
100
AcDbEntity
  8
実線
100
AcDbLine
 10
17.90123758539633
 20
41.50208152801707
 30
0.0
 11
16.53459935856943
 21
41.5020815280171
 31
0.0
  0
LINE
  5
1D6
330
1B8
100
AcDbEntity
  8
実線
100
AcDbLine
 10
15.91791847198289
 20
41.0438239585215
 30
0.0
 11
16.33190018116178
 21
41.42324446224944
 31
0.0
  0
ARC
  5
1D7
330
1B8
100
AcDbEntity
  8
実線
100
AcDbCircle
 10
16.53459935856943
 20
41.20208152801708
 30
0.0
 40
0.3
100
AcDbArc
 50
90.0
 51
132.5057290122239
  0
LINE
  5
1D8
330
1B8
100
AcDbEntity
  8
実線
100
AcDbLine
 10
15.51791847198291
 20
41.0438239585215
 30
0.0
 11
15.10393676280398
 21
41.42324446224941
 31
0.0
  0
ARC
  5
1D9
330
1B8
100
AcDbEntity
  8
実線
100
AcDbCircle
 10
14.90123758539633
 20
41.20208152801706
 30
0.0
 40
0.3
100
AcDbArc
 50
47.49427098777609
 51
90.0
  0
ARC
  5
1DA
330
1B8
100
AcDbEntity
  8
実線
100
AcDbCircle
 10
15.7179184719829
 20
41.5020815280171
 30
0.0
 40
0.5
100
AcDbArc
 50
246.4218215217994
 51
293.5781784782005
  0
ARC
  5
1DB
330
1B8
100
AcDbEntity
  8
実線
100
AcDbCircle
 10
13.53459935856944
 20
41.20208152801708
 30
0.0
 40
0.3
100
AcDbArc
 50
90.0
 51
132.5057290122239
  0
LINE
  5
1DC
330
1B8
100
AcDbEntity
  8
実線
100
AcDbLine
 10
14.90123758539633
 20
41.50208152801707
 30
0.0
 11
13.53459935856944
 21
41.5020815280171
 31
0.0
  0
ARC
  5
1DD
330
1B8
100
AcDbEntity
  8
実線
100
AcDbCircle
 10
20.90123758539633
 20
41.20208152801706
 30
0.0
 40
0.3
100
AcDbArc
 50
47.49427098777609
 51
90.0
  0
LINE
  5
1DE
330
1B8
100
AcDbEntity
  8
実線
100
AcDbLine
 10
18.91791847198289
 20
41.0438239585215
 30
0.0
 11
19.33190018116178
 21
41.42324446224944
 31
0.0
  0
ARC
  5
1DF
330
1B8
100
AcDbEntity
  8
実線
100
AcDbCircle
 10
19.53459935856944
 20
41.20208152801708
 30
0.0
 40
0.3
100
AcDbArc
 50
90.0
 51
132.5057290122239
  0
ARC
  5
1E0
330
1B8
100
AcDbEntity
  8
実線
100
AcDbCircle
 10
18.7179184719829
 20
41.5020815280171
 30
0.0
 40
0.5
100
AcDbArc
 50
246.4218215217994
 51
293.5781784782005
  0
LINE
  5
1E1
330
1B8
100
AcDbEntity
  8
実線
100
AcDbLine
 10
20.90123758539633
 20
41.50208152801707
 30
0.0
 11
19.53459935856944
 21
41.5020815280171
 31
0.0
  0
ARC
  5
1E2
330
1B8
100
AcDbEntity
  8
実線
100
AcDbCircle
 10
17.90123758539633
 20
41.20208152801706
 30
0.0
 40
0.3
100
AcDbArc
 50
47.49427098777609
 51
90.0
  0
LINE
  5
1E3
330
1B8
100
AcDbEntity
  8
実線
100
AcDbLine
 10
18.51791847198291
 20
41.0438239585215
 30
0.0
 11
18.10393676280398
 21
41.42324446224941
 31
0.0
  0
LINE
  5
1E4
330
1B8
100
AcDbEntity
  8
実線
100
AcDbLine
 10
38.90123758539633
 20
41.50208152801707
 30
0.0
 11
37.53459935856944
 21
41.5020815280171
 31
0.0
  0
LINE
  5
1E5
330
1B8
100
AcDbEntity
  8
実線
100
AcDbLine
 10
29.90123758539633
 20
41.50208152801707
 30
0.0
 11
28.53459935856944
 21
41.50208152801707
 31
0.0
  0
LINE
  5
1E6
330
1B8
100
AcDbEntity
  8
実線
100
AcDbLine
 10
24.91791847198289
 20
41.0438239585215
 30
0.0
 11
25.33190018116179
 21
41.42324446224944
 31
0.0
  0
LINE
  5
1E7
330
1B8
100
AcDbEntity
  8
実線
100
AcDbLine
 10
24.51791847198291
 20
41.0438239585215
 30
0.0
 11
24.10393676280398
 21
41.42324446224941
 31
0.0
  0
ARC
  5
1E8
330
1B8
100
AcDbEntity
  8
実線
100
AcDbCircle
 10
24.7179184719829
 20
41.5020815280171
 30
0.0
 40
0.5
100
AcDbArc
 50
246.4218215217994
 51
293.5781784782005
  0
ARC
  5
1E9
330
1B8
100
AcDbEntity
  8
実線
100
AcDbCircle
 10
23.90123758539633
 20
41.20208152801706
 30
0.0
 40
0.3
100
AcDbArc
 50
47.49427098777609
 51
90.0
  0
LINE
  5
1EA
330
1B8
100
AcDbEntity
  8
実線
100
AcDbLine
 10
21.91791847198289
 20
41.0438239585215
 30
0.0
 11
22.33190018116179
 21
41.42324446224944
 31
0.0
  0
ARC
  5
1EB
330
1B8
100
AcDbEntity
  8
実線
100
AcDbCircle
 10
22.53459935856944
 20
41.20208152801708
 30
0.0
 40
0.3
100
AcDbArc
 50
90.0
 51
132.5057290122239
  0
ARC
  5
1EC
330
1B8
100
AcDbEntity
  8
実線
100
AcDbCircle
 10
21.7179184719829
 20
41.5020815280171
 30
0.0
 40
0.5
100
AcDbArc
 50
246.4218215217994
 51
293.5781784782005
  0
LINE
  5
1ED
330
1B8
100
AcDbEntity
  8
実線
100
AcDbLine
 10
23.90123758539633
 20
41.50208152801707
 30
0.0
 11
22.53459935856944
 21
41.5020815280171
 31
0.0
  0
LINE
  5
1EE
330
1B8
100
AcDbEntity
  8
実線
100
AcDbLine
 10
27.91791847198289
 20
41.0438239585215
 30
0.0
 11
28.33190018116179
 21
41.42324446224944
 31
0.0
  0
ARC
  5
1EF
330
1B8
100
AcDbEntity
  8
実線
100
AcDbCircle
 10
28.53459935856944
 20
41.20208152801708
 30
0.0
 40
0.3
100
AcDbArc
 50
90.0
 51
132.5057290122239
  0
LINE
  5
1F0
330
1B8
100
AcDbEntity
  8
実線
100
AcDbLine
 10
27.51791847198291
 20
41.0438239585215
 30
0.0
 11
27.10393676280399
 21
41.42324446224941
 31
0.0
  0
ARC
  5
1F1
330
1B8
100
AcDbEntity
  8
実線
100
AcDbCircle
 10
26.90123758539633
 20
41.20208152801706
 30
0.0
 40
0.3
100
AcDbArc
 50
47.49427098777609
 51
90.0
  0
ARC
  5
1F2
330
1B8
100
AcDbEntity
  8
実線
100
AcDbCircle
 10
27.7179184719829
 20
41.5020815280171
 30
0.0
 40
0.5
100
AcDbArc
 50
246.4218215217994
 51
293.5781784782005
  0
ARC
  5
1F3
330
1B8
100
AcDbEntity
  8
実線
100
AcDbCircle
 10
25.53459935856944
 20
41.20208152801708
 30
0.0
 40
0.3
100
AcDbArc
 50
90.0
 51
132.5057290122239
  0
LINE
  5
1F4
330
1B8
100
AcDbEntity
  8
実線
100
AcDbLine
 10
26.90123758539633
 20
41.50208152801707
 30
0.0
 11
25.53459935856944
 21
41.5020815280171
 31
0.0
  0
LINE
  5
1F5
330
1B8
100
AcDbEntity
  8
実線
100
AcDbLine
 10
33.51791847198291
 20
41.0438239585215
 30
0.0
 11
33.10393676280398
 21
41.42324446224941
 31
0.0
  0
LINE
  5
1F6
330
1B8
100
AcDbEntity
  8
実線
100
AcDbLine
 10
30.91791847198289
 20
41.0438239585215
 30
0.0
 11
31.33190018116179
 21
41.42324446224944
 31
0.0
  0
ARC
  5
1F7
330
1B8
100
AcDbEntity
  8
実線
100
AcDbCircle
 10
31.53459935856944
 20
41.20208152801708
 30
0.0
 40
0.3
100
AcDbArc
 50
90.0
 51
132.5057290122239
  0
ARC
  5
1F8
330
1B8
100
AcDbEntity
  8
実線
100
AcDbCircle
 10
32.90123758539633
 20
41.20208152801706
 30
0.0
 40
0.3
100
AcDbArc
 50
47.49427098777609
 51
90.0
  0
LINE
  5
1F9
330
1B8
100
AcDbEntity
  8
実線
100
AcDbLine
 10
32.90123758539633
 20
41.50208152801707
 30
0.0
 11
31.53459935856944
 21
41.5020815280171
 31
0.0
  0
LINE
  5
1FA
330
1B8
100
AcDbEntity
  8
実線
100
AcDbLine
 10
30.51791847198291
 20
41.0438239585215
 30
0.0
 11
30.10393676280398
 21
41.42324446224941
 31
0.0
  0
ARC
  5
1FB
330
1B8
100
AcDbEntity
  8
実線
100
AcDbCircle
 10
29.90123758539633
 20
41.20208152801706
 30
0.0
 40
0.3
100
AcDbArc
 50
47.49427098777609
 51
90.0
  0
ARC
  5
1FC
330
1B8
100
AcDbEntity
  8
実線
100
AcDbCircle
 10
30.7179184719829
 20
41.5020815280171
 30
0.0
 40
0.5
100
AcDbArc
 50
246.4218215217994
 51
293.5781784782005
  0
LINE
  5
1FD
330
1B8
100
AcDbEntity
  8
実線
100
AcDbLine
 10
36.91791847198289
 20
41.0438239585215
 30
0.0
 11
37.33190018116179
 21
41.42324446224944
 31
0.0
  0
ARC
  5
1FE
330
1B8
100
AcDbEntity
  8
実線
100
AcDbCircle
 10
37.53459935856944
 20
41.20208152801708
 30
0.0
 40
0.3
100
AcDbArc
 50
90.0
 51
132.5057290122239
  0
LINE
  5
1FF
330
1B8
100
AcDbEntity
  8
実線
100
AcDbLine
 10
36.51791847198291
 20
41.0438239585215
 30
0.0
 11
36.10393676280398
 21
41.42324446224941
 31
0.0
  0
ARC
  5
200
330
1B8
100
AcDbEntity
  8
実線
100
AcDbCircle
 10
35.90123758539633
 20
41.20208152801706
 30
0.0
 40
0.3
100
AcDbArc
 50
47.49427098777609
 51
90.0
  0
ARC
  5
201
330
1B8
100
AcDbEntity
  8
実線
100
AcDbCircle
 10
36.7179184719829
 20
41.5020815280171
 30
0.0
 40
0.5
100
AcDbArc
 50
246.4218215217994
 51
293.5781784782005
  0
LINE
  5
202
330
1B8
100
AcDbEntity
  8
実線
100
AcDbLine
 10
33.91791847198289
 20
41.0438239585215
 30
0.0
 11
34.33190018116178
 21
41.42324446224944
 31
0.0
  0
ARC
  5
203
330
1B8
100
AcDbEntity
  8
実線
100
AcDbCircle
 10
34.53459935856944
 20
41.20208152801708
 30
0.0
 40
0.3
100
AcDbArc
 50
90.0
 51
132.5057290122239
  0
ARC
  5
204
330
1B8
100
AcDbEntity
  8
実線
100
AcDbCircle
 10
33.7179184719829
 20
41.5020815280171
 30
0.0
 40
0.5
100
AcDbArc
 50
246.4218215217994
 51
293.5781784782005
  0
LINE
  5
205
330
1B8
100
AcDbEntity
  8
実線
100
AcDbLine
 10
35.90123758539633
 20
41.50208152801707
 30
0.0
 11
34.53459935856944
 21
41.5020815280171
 31
0.0
  0
LINE
  5
206
330
1B8
100
AcDbEntity
  8
実線
100
AcDbLine
 10
50.27830322971164
 20
46.20208152801708
 30
0.0
 11
42.91987660947995
 21
46.20208152801711
 31
0.0
  0
LINE
  5
207
330
1B8
100
AcDbEntity
  8
実線
100
AcDbLine
 10
43.40165001784206
 20
44.41698617091526
 30
0.0
 11
39.95967464867846
 21
41.06441275939227
 31
0.0
  0
LINE
  5
208
330
1B8
100
AcDbEntity
  8
実線
100
AcDbLine
 10
42.71055390535832
 20
46.11698617091531
 30
0.0
 11
39.8052830386074
 21
43.28717688511886
 31
0.0
  0
ARC
  5
209
330
1B8
100
AcDbEntity
  8
実線
100
AcDbCircle
 10
39.59596033448577
 20
43.50208152801707
 30
0.0
 40
0.3
100
AcDbArc
 50
270.0
 51
314.2461516669302
  0
LINE
  5
20A
330
1B8
100
AcDbEntity
  8
実線
100
AcDbLine
 10
39.51791847198291
 20
41.0438239585215
 30
0.0
 11
39.10393676280398
 21
41.42324446224941
 31
0.0
  0
ARC
  5
20B
330
1B8
100
AcDbEntity
  8
実線
100
AcDbCircle
 10
39.7179184719829
 20
41.5020815280171
 30
0.0
 40
0.5
100
AcDbArc
 50
246.4218215217922
 51
322.3349536618381
  0
ARC
  5
20C
330
1B8
100
AcDbEntity
  8
実線
100
AcDbCircle
 10
38.90123758539633
 20
41.20208152801706
 30
0.0
 40
0.3
100
AcDbArc
 50
47.49427098777609
 51
90.0
  0
ARC
  5
20D
330
1B8
100
AcDbEntity
  8
実線
100
AcDbCircle
 10
43.61097272196369
 20
44.20208152801706
 30
0.0
 40
0.3
100
AcDbArc
 50
90.0
 51
134.2461516669291
  0
ARC
  5
20E
330
1B8
100
AcDbEntity
  8
実線
100
AcDbCircle
 10
42.91987660947995
 20
45.9020815280171
 30
0.0
 40
0.3
100
AcDbArc
 50
90.0
 51
134.2461516669291
  0
ARC
  5
20F
330
1B8
100
AcDbEntity
  8
実線
100
AcDbCircle
 10
51.31753371425407
 20
45.90208152801707
 30
0.0
 40
0.3
100
AcDbArc
 50
90.0
 51
150.0000000000265
  0
ARC
  5
210
330
1B8
100
AcDbEntity
  8
実線
100
AcDbCircle
 10
50.27830322971164
 20
45.90208152801707
 30
0.0
 40
0.3
100
AcDbArc
 50
29.99999999997347
 51
90.0
  0
ARC
  5
211
330
1B8
100
AcDbEntity
  8
実線
100
AcDbCircle
 10
50.79791847198285
 20
46.20208152801708
 30
0.0
 40
0.3
100
AcDbArc
 50
209.9999999999757
 51
330.0000000000243
  0
LINE
  5
212
330
1B8
100
AcDbEntity
  8
実線
100
AcDbLine
 10
61.43843095577818
 20
43.20208152801709
 30
0.0
 11
66.49791847198287
 21
43.20208152801706
 31
0.0
  0
LINE
  5
213
330
1B8
100
AcDbEntity
  8
実線
100
AcDbLine
 10
61.05886021427128
 20
41.0020815280171
 30
0.0
 11
64.29791847198291
 21
41.0020815280171
 31
0.0
  0
LINE
  5
214
330
1B8
100
AcDbEntity
  8
実線
100
AcDbLine
 10
58.0916349638932
 20
44.39413684791648
 30
0.0
 11
60.82839383039206
 21
41.11002620811777
 31
0.0
  0
LINE
  5
215
330
1B8
100
AcDbEntity
  8
実線
100
AcDbLine
 10
58.88787237206679
 20
46.09413684791644
 30
0.0
 11
61.20796457189896
 21
43.31002620811776
 31
0.0
  0
ARC
  5
216
330
1B8
100
AcDbEntity
  8
実線
100
AcDbCircle
 10
61.43843095577818
 20
43.5020815280171
 30
0.0
 40
0.3
100
AcDbArc
 50
219.8055710922642
 51
270.0
  0
ARC
  5
217
330
1B8
100
AcDbEntity
  8
実線
100
AcDbCircle
 10
61.05886021427128
 20
41.30208152801711
 30
0.0
 40
0.3
100
AcDbArc
 50
219.8055710922654
 51
270.0
  0
ARC
  5
218
330
1B8
100
AcDbEntity
  8
実線
100
AcDbCircle
 10
57.86116858001398
 20
44.20208152801714
 30
0.0
 40
0.3
100
AcDbArc
 50
39.8055710922654
 51
90.0
  0
ARC
  5
219
330
1B8
100
AcDbEntity
  8
実線
100
AcDbCircle
 10
58.65740598818757
 20
45.9020815280171
 30
0.0
 40
0.3
100
AcDbArc
 50
39.8055710922654
 51
90.0
  0
LINE
  5
21A
330
1B8
100
AcDbEntity
  8
実線
100
AcDbLine
 10
64.89791847198296
 20
42.00208152801709
 30
0.0
 11
66.49791847198284
 21
42.00208152801709
 31
0.0
  0
LINE
  5
21B
330
1B8
100
AcDbEntity
  8
実線
100
AcDbLine
 10
64.59791847198292
 20
41.30208152801711
 30
0.0
 11
64.59791847198295
 21
41.70208152801708
 31
0.0
  0
ARC
  5
21C
330
1B8
100
AcDbEntity
  8
実線
100
AcDbCircle
 10
64.29791847198291
 20
41.30208152801711
 30
0.0
 40
0.3
100
AcDbArc
 50
270.0
 51
0.0
  0
ARC
  5
21D
330
1B8
100
AcDbEntity
  8
実線
100
AcDbCircle
 10
64.89791847198296
 20
41.70208152801708
 30
0.0
 40
0.3
100
AcDbArc
 50
90.0
 51
180.0
  0
LINE
  5
21E
330
1B8
100
AcDbEntity
  8
実線
100
AcDbLine
 10
66.79791847198285
 20
42.30208152801711
 30
0.0
 11
66.79791847198288
 21
42.90208152801702
 31
0.0
  0
ARC
  5
21F
330
1B8
100
AcDbEntity
  8
実線
100
AcDbCircle
 10
66.49791847198284
 20
42.30208152801711
 30
0.0
 40
0.3
100
AcDbArc
 50
270.0
 51
0.0
  0
ARC
  5
220
330
1B8
100
AcDbEntity
  8
実線
100
AcDbCircle
 10
66.49791847198287
 20
42.90208152801705
 30
0.0
 40
0.3
100
AcDbArc
 50
359.9999999999968
 51
90.0
  0
ENDBLK
  5
222
330
1B8
100
AcDbEntity
  8
0
100
AcDbBlockEnd
  0
BLOCK
  5
299
330
230
100
AcDbEntity
  8
0
100
AcDbBlockBegin
  2
A$C079A643F
 70
     0
 10
0.0
 20
0.0
 30
0.0
  3
A$C079A643F
  1

  0
LINE
  5
231
330
230
100
AcDbEntity
  8
実線
100
AcDbLine
 10
1.797918471982882
 20
4.202081528017089
 30
0.0
 11
1.797918471982825
 21
42.90208152801702
 31
0.0
  0
LINE
  5
232
330
230
100
AcDbEntity
  8
実線
100
AcDbLine
 10
3.497918471982842
 20
3.497918471982814
 30
0.0
 11
3.497918471982842
 21
41.20208152801706
 31
0.0
  0
LINE
  5
233
330
230
100
AcDbEntity
  8
実線
100
AcDbLine
 10
1.451040764008553
 20
1.451040764008524
 30
0.0
 11
3.497918471982842
 21
3.497918471982814
 31
0.0
  0
LINE
  5
234
330
230
100
AcDbEntity
  8
実線
100
AcDbLine
 10
0.2489592359914354
 20
2.653122292025642
 30
0.0
 11
1.797918471982882
 21
4.202081528017089
 31
0.0
  0
ARC
  5
235
330
230
100
AcDbEntity
  8
実線
100
AcDbCircle
 10
0.8499999999999943
 20
2.052081528017083
 30
0.0
 40
0.85
100
AcDbArc
 50
135.0
 51
315.0
  0
LINE
  5
236
330
230
100
AcDbEntity
  8
実線
100
AcDbLine
 10
5.90123758539633
 20
41.50208152801707
 30
0.0
 11
3.797918471982853
 21
41.50208152801707
 31
0.0
  0
ARC
  5
237
330
230
100
AcDbEntity
  8
実線
100
AcDbCircle
 10
2.097918471982836
 20
42.90208152801702
 30
0.0
 40
0.3
100
AcDbArc
 50
90.0
 51
180.0
  0
ARC
  5
238
330
230
100
AcDbEntity
  8
実線
100
AcDbCircle
 10
3.797918471982853
 20
41.20208152801706
 30
0.0
 40
0.3
100
AcDbArc
 50
90.0
 51
180.0
  0
LINE
  5
239
330
230
100
AcDbEntity
  8
実線
100
AcDbLine
 10
6.917918471982886
 20
41.0438239585215
 30
0.0
 11
7.331900181161785
 21
41.42324446224944
 31
0.0
  0
ARC
  5
23A
330
230
100
AcDbEntity
  8
実線
100
AcDbCircle
 10
7.534599358569437
 20
41.20208152801708
 30
0.0
 40
0.3
100
AcDbArc
 50
90.0
 51
132.5057290122239
  0
ARC
  5
23B
330
230
100
AcDbEntity
  8
実線
100
AcDbCircle
 10
6.717918471982898
 20
41.5020815280171
 30
0.0
 40
0.5
100
AcDbArc
 50
246.4218215217994
 51
293.5781784782005
  0
ARC
  5
23C
330
230
100
AcDbEntity
  8
実線
100
AcDbCircle
 10
5.90123758539633
 20
41.20208152801706
 30
0.0
 40
0.3
100
AcDbArc
 50
47.49427098777609
 51
90.0
  0
LINE
  5
23D
330
230
100
AcDbEntity
  8
実線
100
AcDbLine
 10
6.517918471982909
 20
41.0438239585215
 30
0.0
 11
6.103936762803982
 21
41.42324446224941
 31
0.0
  0
LINE
  5
23E
330
230
100
AcDbEntity
  8
実線
100
AcDbLine
 10
57.86116858001398
 20
44.50208152801716
 30
0.0
 11
43.61097272196369
 21
44.50208152801707
 31
0.0
  0
LINE
  5
23F
330
230
100
AcDbEntity
  8
実線
100
AcDbLine
 10
58.65740598818757
 20
46.20208152801711
 30
0.0
 11
51.31753371425407
 21
46.20208152801708
 31
0.0
  0
LINE
  5
240
330
230
100
AcDbEntity
  8
実線
100
AcDbLine
 10
39.59596033448577
 20
43.20208152801706
 30
0.0
 11
2.097918471982836
 21
43.20208152801703
 31
0.0
  0
LINE
  5
241
330
230
100
AcDbEntity
  8
実線
100
AcDbLine
 10
21.51791847198291
 20
41.0438239585215
 30
0.0
 11
21.10393676280398
 21
41.42324446224941
 31
0.0
  0
LINE
  5
242
330
230
100
AcDbEntity
  8
実線
100
AcDbLine
 10
12.91791847198288
 20
41.0438239585215
 30
0.0
 11
13.33190018116178
 21
41.42324446224944
 31
0.0
  0
LINE
  5
243
330
230
100
AcDbEntity
  8
実線
100
AcDbLine
 10
8.90123758539633
 20
41.50208152801707
 30
0.0
 11
7.534599358569437
 21
41.50208152801707
 31
0.0
  0
LINE
  5
244
330
230
100
AcDbEntity
  8
実線
100
AcDbLine
 10
12.51791847198291
 20
41.0438239585215
 30
0.0
 11
12.10393676280398
 21
41.42324446224941
 31
0.0
  0
ARC
  5
245
330
230
100
AcDbEntity
  8
実線
100
AcDbCircle
 10
11.90123758539633
 20
41.20208152801706
 30
0.0
 40
0.3
100
AcDbArc
 50
47.49427098777609
 51
90.0
  0
ARC
  5
246
330
230
100
AcDbEntity
  8
実線
100
AcDbCircle
 10
12.7179184719829
 20
41.5020815280171
 30
0.0
 40
0.5
100
AcDbArc
 50
246.4218215217994
 51
293.5781784782005
  0
ARC
  5
247
330
230
100
AcDbEntity
  8
実線
100
AcDbCircle
 10
10.53459935856944
 20
41.20208152801708
 30
0.0
 40
0.3
100
AcDbArc
 50
90.0
 51
132.5057290122239
  0
LINE
  5
248
330
230
100
AcDbEntity
  8
実線
100
AcDbLine
 10
11.90123758539633
 20
41.50208152801707
 30
0.0
 11
10.53459935856944
 21
41.5020815280171
 31
0.0
  0
LINE
  5
249
330
230
100
AcDbEntity
  8
実線
100
AcDbLine
 10
9.517918471982909
 20
41.0438239585215
 30
0.0
 11
9.103936762803982
 21
41.42324446224941
 31
0.0
  0
ARC
  5
24A
330
230
100
AcDbEntity
  8
実線
100
AcDbCircle
 10
8.90123758539633
 20
41.20208152801706
 30
0.0
 40
0.3
100
AcDbArc
 50
47.49427098777609
 51
90.0
  0
ARC
  5
24B
330
230
100
AcDbEntity
  8
実線
100
AcDbCircle
 10
9.717918471982898
 20
41.5020815280171
 30
0.0
 40
0.5
100
AcDbArc
 50
246.4218215217994
 51
293.5781784782005
  0
LINE
  5
24C
330
230
100
AcDbEntity
  8
実線
100
AcDbLine
 10
9.917918471982886
 20
41.0438239585215
 30
0.0
 11
10.33190018116178
 21
41.42324446224944
 31
0.0
  0
LINE
  5
24D
330
230
100
AcDbEntity
  8
実線
100
AcDbLine
 10
17.90123758539633
 20
41.50208152801707
 30
0.0
 11
16.53459935856943
 21
41.5020815280171
 31
0.0
  0
LINE
  5
24E
330
230
100
AcDbEntity
  8
実線
100
AcDbLine
 10
15.91791847198289
 20
41.0438239585215
 30
0.0
 11
16.33190018116178
 21
41.42324446224944
 31
0.0
  0
ARC
  5
24F
330
230
100
AcDbEntity
  8
実線
100
AcDbCircle
 10
16.53459935856943
 20
41.20208152801708
 30
0.0
 40
0.3
100
AcDbArc
 50
90.0
 51
132.5057290122239
  0
LINE
  5
250
330
230
100
AcDbEntity
  8
実線
100
AcDbLine
 10
15.51791847198291
 20
41.0438239585215
 30
0.0
 11
15.10393676280398
 21
41.42324446224941
 31
0.0
  0
ARC
  5
251
330
230
100
AcDbEntity
  8
実線
100
AcDbCircle
 10
14.90123758539633
 20
41.20208152801706
 30
0.0
 40
0.3
100
AcDbArc
 50
47.49427098777609
 51
90.0
  0
ARC
  5
252
330
230
100
AcDbEntity
  8
実線
100
AcDbCircle
 10
15.7179184719829
 20
41.5020815280171
 30
0.0
 40
0.5
100
AcDbArc
 50
246.4218215217994
 51
293.5781784782005
  0
ARC
  5
253
330
230
100
AcDbEntity
  8
実線
100
AcDbCircle
 10
13.53459935856944
 20
41.20208152801708
 30
0.0
 40
0.3
100
AcDbArc
 50
90.0
 51
132.5057290122239
  0
LINE
  5
254
330
230
100
AcDbEntity
  8
実線
100
AcDbLine
 10
14.90123758539633
 20
41.50208152801707
 30
0.0
 11
13.53459935856944
 21
41.5020815280171
 31
0.0
  0
ARC
  5
255
330
230
100
AcDbEntity
  8
実線
100
AcDbCircle
 10
20.90123758539633
 20
41.20208152801706
 30
0.0
 40
0.3
100
AcDbArc
 50
47.49427098777609
 51
90.0
  0
LINE
  5
256
330
230
100
AcDbEntity
  8
実線
100
AcDbLine
 10
18.91791847198289
 20
41.0438239585215
 30
0.0
 11
19.33190018116178
 21
41.42324446224944
 31
0.0
  0
ARC
  5
257
330
230
100
AcDbEntity
  8
実線
100
AcDbCircle
 10
19.53459935856944
 20
41.20208152801708
 30
0.0
 40
0.3
100
AcDbArc
 50
90.0
 51
132.5057290122239
  0
ARC
  5
258
330
230
100
AcDbEntity
  8
実線
100
AcDbCircle
 10
18.7179184719829
 20
41.5020815280171
 30
0.0
 40
0.5
100
AcDbArc
 50
246.4218215217994
 51
293.5781784782005
  0
LINE
  5
259
330
230
100
AcDbEntity
  8
実線
100
AcDbLine
 10
20.90123758539633
 20
41.50208152801707
 30
0.0
 11
19.53459935856944
 21
41.5020815280171
 31
0.0
  0
ARC
  5
25A
330
230
100
AcDbEntity
  8
実線
100
AcDbCircle
 10
17.90123758539633
 20
41.20208152801706
 30
0.0
 40
0.3
100
AcDbArc
 50
47.49427098777609
 51
90.0
  0
LINE
  5
25B
330
230
100
AcDbEntity
  8
実線
100
AcDbLine
 10
18.51791847198291
 20
41.0438239585215
 30
0.0
 11
18.10393676280398
 21
41.42324446224941
 31
0.0
  0
LINE
  5
25C
330
230
100
AcDbEntity
  8
実線
100
AcDbLine
 10
38.90123758539633
 20
41.50208152801707
 30
0.0
 11
37.53459935856944
 21
41.5020815280171
 31
0.0
  0
LINE
  5
25D
330
230
100
AcDbEntity
  8
実線
100
AcDbLine
 10
29.90123758539633
 20
41.50208152801707
 30
0.0
 11
28.53459935856944
 21
41.50208152801707
 31
0.0
  0
LINE
  5
25E
330
230
100
AcDbEntity
  8
実線
100
AcDbLine
 10
24.91791847198289
 20
41.0438239585215
 30
0.0
 11
25.33190018116179
 21
41.42324446224944
 31
0.0
  0
LINE
  5
25F
330
230
100
AcDbEntity
  8
実線
100
AcDbLine
 10
24.51791847198291
 20
41.0438239585215
 30
0.0
 11
24.10393676280398
 21
41.42324446224941
 31
0.0
  0
ARC
  5
260
330
230
100
AcDbEntity
  8
実線
100
AcDbCircle
 10
24.7179184719829
 20
41.5020815280171
 30
0.0
 40
0.5
100
AcDbArc
 50
246.4218215217994
 51
293.5781784782005
  0
ARC
  5
261
330
230
100
AcDbEntity
  8
実線
100
AcDbCircle
 10
23.90123758539633
 20
41.20208152801706
 30
0.0
 40
0.3
100
AcDbArc
 50
47.49427098777609
 51
90.0
  0
LINE
  5
262
330
230
100
AcDbEntity
  8
実線
100
AcDbLine
 10
21.91791847198289
 20
41.0438239585215
 30
0.0
 11
22.33190018116179
 21
41.42324446224944
 31
0.0
  0
ARC
  5
263
330
230
100
AcDbEntity
  8
実線
100
AcDbCircle
 10
22.53459935856944
 20
41.20208152801708
 30
0.0
 40
0.3
100
AcDbArc
 50
90.0
 51
132.5057290122239
  0
ARC
  5
264
330
230
100
AcDbEntity
  8
実線
100
AcDbCircle
 10
21.7179184719829
 20
41.5020815280171
 30
0.0
 40
0.5
100
AcDbArc
 50
246.4218215217994
 51
293.5781784782005
  0
LINE
  5
265
330
230
100
AcDbEntity
  8
実線
100
AcDbLine
 10
23.90123758539633
 20
41.50208152801707
 30
0.0
 11
22.53459935856944
 21
41.5020815280171
 31
0.0
  0
LINE
  5
266
330
230
100
AcDbEntity
  8
実線
100
AcDbLine
 10
27.91791847198289
 20
41.0438239585215
 30
0.0
 11
28.33190018116179
 21
41.42324446224944
 31
0.0
  0
ARC
  5
267
330
230
100
AcDbEntity
  8
実線
100
AcDbCircle
 10
28.53459935856944
 20
41.20208152801708
 30
0.0
 40
0.3
100
AcDbArc
 50
90.0
 51
132.5057290122239
  0
LINE
  5
268
330
230
100
AcDbEntity
  8
実線
100
AcDbLine
 10
27.51791847198291
 20
41.0438239585215
 30
0.0
 11
27.10393676280399
 21
41.42324446224941
 31
0.0
  0
ARC
  5
269
330
230
100
AcDbEntity
  8
実線
100
AcDbCircle
 10
26.90123758539633
 20
41.20208152801706
 30
0.0
 40
0.3
100
AcDbArc
 50
47.49427098777609
 51
90.0
  0
ARC
  5
26A
330
230
100
AcDbEntity
  8
実線
100
AcDbCircle
 10
27.7179184719829
 20
41.5020815280171
 30
0.0
 40
0.5
100
AcDbArc
 50
246.4218215217994
 51
293.5781784782005
  0
ARC
  5
26B
330
230
100
AcDbEntity
  8
実線
100
AcDbCircle
 10
25.53459935856944
 20
41.20208152801708
 30
0.0
 40
0.3
100
AcDbArc
 50
90.0
 51
132.5057290122239
  0
LINE
  5
26C
330
230
100
AcDbEntity
  8
実線
100
AcDbLine
 10
26.90123758539633
 20
41.50208152801707
 30
0.0
 11
25.53459935856944
 21
41.5020815280171
 31
0.0
  0
LINE
  5
26D
330
230
100
AcDbEntity
  8
実線
100
AcDbLine
 10
33.51791847198291
 20
41.0438239585215
 30
0.0
 11
33.10393676280398
 21
41.42324446224941
 31
0.0
  0
LINE
  5
26E
330
230
100
AcDbEntity
  8
実線
100
AcDbLine
 10
30.91791847198289
 20
41.0438239585215
 30
0.0
 11
31.33190018116179
 21
41.42324446224944
 31
0.0
  0
ARC
  5
26F
330
230
100
AcDbEntity
  8
実線
100
AcDbCircle
 10
31.53459935856944
 20
41.20208152801708
 30
0.0
 40
0.3
100
AcDbArc
 50
90.0
 51
132.5057290122239
  0
ARC
  5
270
330
230
100
AcDbEntity
  8
実線
100
AcDbCircle
 10
32.90123758539633
 20
41.20208152801706
 30
0.0
 40
0.3
100
AcDbArc
 50
47.49427098777609
 51
90.0
  0
LINE
  5
271
330
230
100
AcDbEntity
  8
実線
100
AcDbLine
 10
32.90123758539633
 20
41.50208152801707
 30
0.0
 11
31.53459935856944
 21
41.5020815280171
 31
0.0
  0
LINE
  5
272
330
230
100
AcDbEntity
  8
実線
100
AcDbLine
 10
30.51791847198291
 20
41.0438239585215
 30
0.0
 11
30.10393676280398
 21
41.42324446224941
 31
0.0
  0
ARC
  5
273
330
230
100
AcDbEntity
  8
実線
100
AcDbCircle
 10
29.90123758539633
 20
41.20208152801706
 30
0.0
 40
0.3
100
AcDbArc
 50
47.49427098777609
 51
90.0
  0
ARC
  5
274
330
230
100
AcDbEntity
  8
実線
100
AcDbCircle
 10
30.7179184719829
 20
41.5020815280171
 30
0.0
 40
0.5
100
AcDbArc
 50
246.4218215217994
 51
293.5781784782005
  0
LINE
  5
275
330
230
100
AcDbEntity
  8
実線
100
AcDbLine
 10
36.91791847198289
 20
41.0438239585215
 30
0.0
 11
37.33190018116179
 21
41.42324446224944
 31
0.0
  0
ARC
  5
276
330
230
100
AcDbEntity
  8
実線
100
AcDbCircle
 10
37.53459935856944
 20
41.20208152801708
 30
0.0
 40
0.3
100
AcDbArc
 50
90.0
 51
132.5057290122239
  0
LINE
  5
277
330
230
100
AcDbEntity
  8
実線
100
AcDbLine
 10
36.51791847198291
 20
41.0438239585215
 30
0.0
 11
36.10393676280398
 21
41.42324446224941
 31
0.0
  0
ARC
  5
278
330
230
100
AcDbEntity
  8
実線
100
AcDbCircle
 10
35.90123758539633
 20
41.20208152801706
 30
0.0
 40
0.3
100
AcDbArc
 50
47.49427098777609
 51
90.0
  0
ARC
  5
279
330
230
100
AcDbEntity
  8
実線
100
AcDbCircle
 10
36.7179184719829
 20
41.5020815280171
 30
0.0
 40
0.5
100
AcDbArc
 50
246.4218215217994
 51
293.5781784782005
  0
LINE
  5
27A
330
230
100
AcDbEntity
  8
実線
100
AcDbLine
 10
33.91791847198289
 20
41.0438239585215
 30
0.0
 11
34.33190018116178
 21
41.42324446224944
 31
0.0
  0
ARC
  5
27B
330
230
100
AcDbEntity
  8
実線
100
AcDbCircle
 10
34.53459935856944
 20
41.20208152801708
 30
0.0
 40
0.3
100
AcDbArc
 50
90.0
 51
132.5057290122239
  0
ARC
  5
27C
330
230
100
AcDbEntity
  8
実線
100
AcDbCircle
 10
33.7179184719829
 20
41.5020815280171
 30
0.0
 40
0.5
100
AcDbArc
 50
246.4218215217994
 51
293.5781784782005
  0
LINE
  5
27D
330
230
100
AcDbEntity
  8
実線
100
AcDbLine
 10
35.90123758539633
 20
41.50208152801707
 30
0.0
 11
34.53459935856944
 21
41.5020815280171
 31
0.0
  0
LINE
  5
27E
330
230
100
AcDbEntity
  8
実線
100
AcDbLine
 10
50.27830322971164
 20
46.20208152801708
 30
0.0
 11
42.91987660947995
 21
46.20208152801711
 31
0.0
  0
LINE
  5
27F
330
230
100
AcDbEntity
  8
実線
100
AcDbLine
 10
43.40165001784206
 20
44.41698617091526
 30
0.0
 11
39.95967464867846
 21
41.06441275939227
 31
0.0
  0
LINE
  5
280
330
230
100
AcDbEntity
  8
実線
100
AcDbLine
 10
42.71055390535832
 20
46.11698617091531
 30
0.0
 11
39.8052830386074
 21
43.28717688511886
 31
0.0
  0
ARC
  5
281
330
230
100
AcDbEntity
  8
実線
100
AcDbCircle
 10
39.59596033448577
 20
43.50208152801707
 30
0.0
 40
0.3
100
AcDbArc
 50
270.0
 51
314.2461516669302
  0
LINE
  5
282
330
230
100
AcDbEntity
  8
実線
100
AcDbLine
 10
39.51791847198291
 20
41.0438239585215
 30
0.0
 11
39.10393676280398
 21
41.42324446224941
 31
0.0
  0
ARC
  5
283
330
230
100
AcDbEntity
  8
実線
100
AcDbCircle
 10
39.7179184719829
 20
41.5020815280171
 30
0.0
 40
0.5
100
AcDbArc
 50
246.4218215217922
 51
322.3349536618381
  0
ARC
  5
284
330
230
100
AcDbEntity
  8
実線
100
AcDbCircle
 10
38.90123758539633
 20
41.20208152801706
 30
0.0
 40
0.3
100
AcDbArc
 50
47.49427098777609
 51
90.0
  0
ARC
  5
285
330
230
100
AcDbEntity
  8
実線
100
AcDbCircle
 10
43.61097272196369
 20
44.20208152801706
 30
0.0
 40
0.3
100
AcDbArc
 50
90.0
 51
134.2461516669291
  0
ARC
  5
286
330
230
100
AcDbEntity
  8
実線
100
AcDbCircle
 10
42.91987660947995
 20
45.9020815280171
 30
0.0
 40
0.3
100
AcDbArc
 50
90.0
 51
134.2461516669291
  0
ARC
  5
287
330
230
100
AcDbEntity
  8
実線
100
AcDbCircle
 10
51.31753371425407
 20
45.90208152801707
 30
0.0
 40
0.3
100
AcDbArc
 50
90.0
 51
150.0000000000265
  0
ARC
  5
288
330
230
100
AcDbEntity
  8
実線
100
AcDbCircle
 10
50.27830322971164
 20
45.90208152801707
 30
0.0
 40
0.3
100
AcDbArc
 50
29.99999999997347
 51
90.0
  0
ARC
  5
289
330
230
100
AcDbEntity
  8
実線
100
AcDbCircle
 10
50.79791847198285
 20
46.20208152801708
 30
0.0
 40
0.3
100
AcDbArc
 50
209.9999999999757
 51
330.0000000000243
  0
LINE
  5
28A
330
230
100
AcDbEntity
  8
実線
100
AcDbLine
 10
61.43843095577818
 20
43.20208152801709
 30
0.0
 11
66.49791847198287
 21
43.20208152801706
 31
0.0
  0
LINE
  5
28B
330
230
100
AcDbEntity
  8
実線
100
AcDbLine
 10
61.05886021427128
 20
41.0020815280171
 30
0.0
 11
64.29791847198291
 21
41.0020815280171
 31
0.0
  0
LINE
  5
28C
330
230
100
AcDbEntity
  8
実線
100
AcDbLine
 10
58.0916349638932
 20
44.39413684791648
 30
0.0
 11
60.82839383039206
 21
41.11002620811777
 31
0.0
  0
LINE
  5
28D
330
230
100
AcDbEntity
  8
実線
100
AcDbLine
 10
58.88787237206679
 20
46.09413684791644
 30
0.0
 11
61.20796457189896
 21
43.31002620811776
 31
0.0
  0
ARC
  5
28E
330
230
100
AcDbEntity
  8
実線
100
AcDbCircle
 10
61.43843095577818
 20
43.5020815280171
 30
0.0
 40
0.3
100
AcDbArc
 50
219.8055710922642
 51
270.0
  0
ARC
  5
28F
330
230
100
AcDbEntity
  8
実線
100
AcDbCircle
 10
61.05886021427128
 20
41.30208152801711
 30
0.0
 40
0.3
100
AcDbArc
 50
219.8055710922654
 51
270.0
  0
ARC
  5
290
330
230
100
AcDbEntity
  8
実線
100
AcDbCircle
 10
57.86116858001398
 20
44.20208152801714
 30
0.0
 40
0.3
100
AcDbArc
 50
39.8055710922654
 51
90.0
  0
ARC
  5
291
330
230
100
AcDbEntity
  8
実線
100
AcDbCircle
 10
58.65740598818757
 20
45.9020815280171
 30
0.0
 40
0.3
100
AcDbArc
 50
39.8055710922654
 51
90.0
  0
LINE
  5
292
330
230
100
AcDbEntity
  8
実線
100
AcDbLine
 10
64.89791847198296
 20
42.00208152801709
 30
0.0
 11
66.49791847198284
 21
42.00208152801709
 31
0.0
  0
LINE
  5
293
330
230
100
AcDbEntity
  8
実線
100
AcDbLine
 10
64.59791847198292
 20
41.30208152801711
 30
0.0
 11
64.59791847198295
 21
41.70208152801708
 31
0.0
  0
ARC
  5
294
330
230
100
AcDbEntity
  8
実線
100
AcDbCircle
 10
64.29791847198291
 20
41.30208152801711
 30
0.0
 40
0.3
100
AcDbArc
 50
270.0
 51
0.0
  0
ARC
  5
295
330
230
100
AcDbEntity
  8
実線
100
AcDbCircle
 10
64.89791847198296
 20
41.70208152801708
 30
0.0
 40
0.3
100
AcDbArc
 50
90.0
 51
180.0
  0
LINE
  5
296
330
230
100
AcDbEntity
  8
実線
100
AcDbLine
 10
66.79791847198285
 20
42.30208152801711
 30
0.0
 11
66.79791847198288
 21
42.90208152801702
 31
0.0
  0
ARC
  5
297
330
230
100
AcDbEntity
  8
実線
100
AcDbCircle
 10
66.49791847198284
 20
42.30208152801711
 30
0.0
 40
0.3
100
AcDbArc
 50
270.0
 51
0.0
  0
ARC
  5
298
330
230
100
AcDbEntity
  8
実線
100
AcDbCircle
 10
66.49791847198287
 20
42.90208152801705
 30
0.0
 40
0.3
100
AcDbArc
 50
359.9999999999968
 51
90.0
  0
ENDBLK
  5
29A
330
230
100
AcDbEntity
  8
0
100
AcDbBlockEnd
  0
BLOCK
  5
31D
330
2B4
100
AcDbEntity
  8
0
100
AcDbBlockBegin
  2
A$C21311BA8
 70
     0
 10
0.0
 20
0.0
 30
0.0
  3
A$C21311BA8
  1

  0
LINE
  5
2B5
330
2B4
100
AcDbEntity
  8
実線
100
AcDbLine
 10
1.797918471982882
 20
4.202081528017089
 30
0.0
 11
1.797918471982825
 21
42.90208152801702
 31
0.0
  0
LINE
  5
2B6
330
2B4
100
AcDbEntity
  8
実線
100
AcDbLine
 10
3.497918471982842
 20
3.497918471982814
 30
0.0
 11
3.497918471982842
 21
41.20208152801706
 31
0.0
  0
LINE
  5
2B7
330
2B4
100
AcDbEntity
  8
実線
100
AcDbLine
 10
1.451040764008553
 20
1.451040764008524
 30
0.0
 11
3.497918471982842
 21
3.497918471982814
 31
0.0
  0
LINE
  5
2B8
330
2B4
100
AcDbEntity
  8
実線
100
AcDbLine
 10
0.2489592359914354
 20
2.653122292025642
 30
0.0
 11
1.797918471982882
 21
4.202081528017089
 31
0.0
  0
ARC
  5
2B9
330
2B4
100
AcDbEntity
  8
実線
100
AcDbCircle
 10
0.8499999999999943
 20
2.052081528017083
 30
0.0
 40
0.85
100
AcDbArc
 50
135.0
 51
315.0
  0
LINE
  5
2BA
330
2B4
100
AcDbEntity
  8
実線
100
AcDbLine
 10
5.90123758539633
 20
41.50208152801707
 30
0.0
 11
3.797918471982853
 21
41.50208152801707
 31
0.0
  0
ARC
  5
2BB
330
2B4
100
AcDbEntity
  8
実線
100
AcDbCircle
 10
2.097918471982836
 20
42.90208152801702
 30
0.0
 40
0.3
100
AcDbArc
 50
90.0
 51
180.0
  0
ARC
  5
2BC
330
2B4
100
AcDbEntity
  8
実線
100
AcDbCircle
 10
3.797918471982853
 20
41.20208152801706
 30
0.0
 40
0.3
100
AcDbArc
 50
90.0
 51
180.0
  0
LINE
  5
2BD
330
2B4
100
AcDbEntity
  8
実線
100
AcDbLine
 10
6.917918471982886
 20
41.0438239585215
 30
0.0
 11
7.331900181161785
 21
41.42324446224944
 31
0.0
  0
ARC
  5
2BE
330
2B4
100
AcDbEntity
  8
実線
100
AcDbCircle
 10
7.534599358569437
 20
41.20208152801708
 30
0.0
 40
0.3
100
AcDbArc
 50
90.0
 51
132.5057290122239
  0
ARC
  5
2BF
330
2B4
100
AcDbEntity
  8
実線
100
AcDbCircle
 10
6.717918471982898
 20
41.5020815280171
 30
0.0
 40
0.5
100
AcDbArc
 50
246.4218215217994
 51
293.5781784782005
  0
ARC
  5
2C0
330
2B4
100
AcDbEntity
  8
実線
100
AcDbCircle
 10
5.90123758539633
 20
41.20208152801706
 30
0.0
 40
0.3
100
AcDbArc
 50
47.49427098777609
 51
90.0
  0
LINE
  5
2C1
330
2B4
100
AcDbEntity
  8
実線
100
AcDbLine
 10
6.517918471982909
 20
41.0438239585215
 30
0.0
 11
6.103936762803982
 21
41.42324446224941
 31
0.0
  0
LINE
  5
2C2
330
2B4
100
AcDbEntity
  8
実線
100
AcDbLine
 10
57.86116858001398
 20
44.50208152801716
 30
0.0
 11
43.61097272196369
 21
44.50208152801707
 31
0.0
  0
LINE
  5
2C3
330
2B4
100
AcDbEntity
  8
実線
100
AcDbLine
 10
58.65740598818757
 20
46.20208152801711
 30
0.0
 11
51.31753371425407
 21
46.20208152801708
 31
0.0
  0
LINE
  5
2C4
330
2B4
100
AcDbEntity
  8
実線
100
AcDbLine
 10
39.59596033448577
 20
43.20208152801706
 30
0.0
 11
2.097918471982836
 21
43.20208152801703
 31
0.0
  0
LINE
  5
2C5
330
2B4
100
AcDbEntity
  8
実線
100
AcDbLine
 10
21.51791847198291
 20
41.0438239585215
 30
0.0
 11
21.10393676280398
 21
41.42324446224941
 31
0.0
  0
LINE
  5
2C6
330
2B4
100
AcDbEntity
  8
実線
100
AcDbLine
 10
12.91791847198288
 20
41.0438239585215
 30
0.0
 11
13.33190018116178
 21
41.42324446224944
 31
0.0
  0
LINE
  5
2C7
330
2B4
100
AcDbEntity
  8
実線
100
AcDbLine
 10
8.90123758539633
 20
41.50208152801707
 30
0.0
 11
7.534599358569437
 21
41.50208152801707
 31
0.0
  0
LINE
  5
2C8
330
2B4
100
AcDbEntity
  8
実線
100
AcDbLine
 10
12.51791847198291
 20
41.0438239585215
 30
0.0
 11
12.10393676280398
 21
41.42324446224941
 31
0.0
  0
ARC
  5
2C9
330
2B4
100
AcDbEntity
  8
実線
100
AcDbCircle
 10
11.90123758539633
 20
41.20208152801706
 30
0.0
 40
0.3
100
AcDbArc
 50
47.49427098777609
 51
90.0
  0
ARC
  5
2CA
330
2B4
100
AcDbEntity
  8
実線
100
AcDbCircle
 10
12.7179184719829
 20
41.5020815280171
 30
0.0
 40
0.5
100
AcDbArc
 50
246.4218215217994
 51
293.5781784782005
  0
ARC
  5
2CB
330
2B4
100
AcDbEntity
  8
実線
100
AcDbCircle
 10
10.53459935856944
 20
41.20208152801708
 30
0.0
 40
0.3
100
AcDbArc
 50
90.0
 51
132.5057290122239
  0
LINE
  5
2CC
330
2B4
100
AcDbEntity
  8
実線
100
AcDbLine
 10
11.90123758539633
 20
41.50208152801707
 30
0.0
 11
10.53459935856944
 21
41.5020815280171
 31
0.0
  0
LINE
  5
2CD
330
2B4
100
AcDbEntity
  8
実線
100
AcDbLine
 10
9.517918471982909
 20
41.0438239585215
 30
0.0
 11
9.103936762803982
 21
41.42324446224941
 31
0.0
  0
ARC
  5
2CE
330
2B4
100
AcDbEntity
  8
実線
100
AcDbCircle
 10
8.90123758539633
 20
41.20208152801706
 30
0.0
 40
0.3
100
AcDbArc
 50
47.49427098777609
 51
90.0
  0
ARC
  5
2CF
330
2B4
100
AcDbEntity
  8
実線
100
AcDbCircle
 10
9.717918471982898
 20
41.5020815280171
 30
0.0
 40
0.5
100
AcDbArc
 50
246.4218215217994
 51
293.5781784782005
  0
LINE
  5
2D0
330
2B4
100
AcDbEntity
  8
実線
100
AcDbLine
 10
9.917918471982886
 20
41.0438239585215
 30
0.0
 11
10.33190018116178
 21
41.42324446224944
 31
0.0
  0
LINE
  5
2D1
330
2B4
100
AcDbEntity
  8
実線
100
AcDbLine
 10
17.90123758539633
 20
41.50208152801707
 30
0.0
 11
16.53459935856943
 21
41.5020815280171
 31
0.0
  0
LINE
  5
2D2
330
2B4
100
AcDbEntity
  8
実線
100
AcDbLine
 10
15.91791847198289
 20
41.0438239585215
 30
0.0
 11
16.33190018116178
 21
41.42324446224944
 31
0.0
  0
ARC
  5
2D3
330
2B4
100
AcDbEntity
  8
実線
100
AcDbCircle
 10
16.53459935856943
 20
41.20208152801708
 30
0.0
 40
0.3
100
AcDbArc
 50
90.0
 51
132.5057290122239
  0
LINE
  5
2D4
330
2B4
100
AcDbEntity
  8
実線
100
AcDbLine
 10
15.51791847198291
 20
41.0438239585215
 30
0.0
 11
15.10393676280398
 21
41.42324446224941
 31
0.0
  0
ARC
  5
2D5
330
2B4
100
AcDbEntity
  8
実線
100
AcDbCircle
 10
14.90123758539633
 20
41.20208152801706
 30
0.0
 40
0.3
100
AcDbArc
 50
47.49427098777609
 51
90.0
  0
ARC
  5
2D6
330
2B4
100
AcDbEntity
  8
実線
100
AcDbCircle
 10
15.7179184719829
 20
41.5020815280171
 30
0.0
 40
0.5
100
AcDbArc
 50
246.4218215217994
 51
293.5781784782005
  0
ARC
  5
2D7
330
2B4
100
AcDbEntity
  8
実線
100
AcDbCircle
 10
13.53459935856944
 20
41.20208152801708
 30
0.0
 40
0.3
100
AcDbArc
 50
90.0
 51
132.5057290122239
  0
LINE
  5
2D8
330
2B4
100
AcDbEntity
  8
実線
100
AcDbLine
 10
14.90123758539633
 20
41.50208152801707
 30
0.0
 11
13.53459935856944
 21
41.5020815280171
 31
0.0
  0
ARC
  5
2D9
330
2B4
100
AcDbEntity
  8
実線
100
AcDbCircle
 10
20.90123758539633
 20
41.20208152801706
 30
0.0
 40
0.3
100
AcDbArc
 50
47.49427098777609
 51
90.0
  0
LINE
  5
2DA
330
2B4
100
AcDbEntity
  8
実線
100
AcDbLine
 10
18.91791847198289
 20
41.0438239585215
 30
0.0
 11
19.33190018116178
 21
41.42324446224944
 31
0.0
  0
ARC
  5
2DB
330
2B4
100
AcDbEntity
  8
実線
100
AcDbCircle
 10
19.53459935856944
 20
41.20208152801708
 30
0.0
 40
0.3
100
AcDbArc
 50
90.0
 51
132.5057290122239
  0
ARC
  5
2DC
330
2B4
100
AcDbEntity
  8
実線
100
AcDbCircle
 10
18.7179184719829
 20
41.5020815280171
 30
0.0
 40
0.5
100
AcDbArc
 50
246.4218215217994
 51
293.5781784782005
  0
LINE
  5
2DD
330
2B4
100
AcDbEntity
  8
実線
100
AcDbLine
 10
20.90123758539633
 20
41.50208152801707
 30
0.0
 11
19.53459935856944
 21
41.5020815280171
 31
0.0
  0
ARC
  5
2DE
330
2B4
100
AcDbEntity
  8
実線
100
AcDbCircle
 10
17.90123758539633
 20
41.20208152801706
 30
0.0
 40
0.3
100
AcDbArc
 50
47.49427098777609
 51
90.0
  0
LINE
  5
2DF
330
2B4
100
AcDbEntity
  8
実線
100
AcDbLine
 10
18.51791847198291
 20
41.0438239585215
 30
0.0
 11
18.10393676280398
 21
41.42324446224941
 31
0.0
  0
LINE
  5
2E0
330
2B4
100
AcDbEntity
  8
実線
100
AcDbLine
 10
38.90123758539633
 20
41.50208152801707
 30
0.0
 11
37.53459935856944
 21
41.5020815280171
 31
0.0
  0
LINE
  5
2E1
330
2B4
100
AcDbEntity
  8
実線
100
AcDbLine
 10
29.90123758539633
 20
41.50208152801707
 30
0.0
 11
28.53459935856944
 21
41.50208152801707
 31
0.0
  0
LINE
  5
2E2
330
2B4
100
AcDbEntity
  8
実線
100
AcDbLine
 10
24.91791847198289
 20
41.0438239585215
 30
0.0
 11
25.33190018116179
 21
41.42324446224944
 31
0.0
  0
LINE
  5
2E3
330
2B4
100
AcDbEntity
  8
実線
100
AcDbLine
 10
24.51791847198291
 20
41.0438239585215
 30
0.0
 11
24.10393676280398
 21
41.42324446224941
 31
0.0
  0
ARC
  5
2E4
330
2B4
100
AcDbEntity
  8
実線
100
AcDbCircle
 10
24.7179184719829
 20
41.5020815280171
 30
0.0
 40
0.5
100
AcDbArc
 50
246.4218215217994
 51
293.5781784782005
  0
ARC
  5
2E5
330
2B4
100
AcDbEntity
  8
実線
100
AcDbCircle
 10
23.90123758539633
 20
41.20208152801706
 30
0.0
 40
0.3
100
AcDbArc
 50
47.49427098777609
 51
90.0
  0
LINE
  5
2E6
330
2B4
100
AcDbEntity
  8
実線
100
AcDbLine
 10
21.91791847198289
 20
41.0438239585215
 30
0.0
 11
22.33190018116179
 21
41.42324446224944
 31
0.0
  0
ARC
  5
2E7
330
2B4
100
AcDbEntity
  8
実線
100
AcDbCircle
 10
22.53459935856944
 20
41.20208152801708
 30
0.0
 40
0.3
100
AcDbArc
 50
90.0
 51
132.5057290122239
  0
ARC
  5
2E8
330
2B4
100
AcDbEntity
  8
実線
100
AcDbCircle
 10
21.7179184719829
 20
41.5020815280171
 30
0.0
 40
0.5
100
AcDbArc
 50
246.4218215217994
 51
293.5781784782005
  0
LINE
  5
2E9
330
2B4
100
AcDbEntity
  8
実線
100
AcDbLine
 10
23.90123758539633
 20
41.50208152801707
 30
0.0
 11
22.53459935856944
 21
41.5020815280171
 31
0.0
  0
LINE
  5
2EA
330
2B4
100
AcDbEntity
  8
実線
100
AcDbLine
 10
27.91791847198289
 20
41.0438239585215
 30
0.0
 11
28.33190018116179
 21
41.42324446224944
 31
0.0
  0
ARC
  5
2EB
330
2B4
100
AcDbEntity
  8
実線
100
AcDbCircle
 10
28.53459935856944
 20
41.20208152801708
 30
0.0
 40
0.3
100
AcDbArc
 50
90.0
 51
132.5057290122239
  0
LINE
  5
2EC
330
2B4
100
AcDbEntity
  8
実線
100
AcDbLine
 10
27.51791847198291
 20
41.0438239585215
 30
0.0
 11
27.10393676280399
 21
41.42324446224941
 31
0.0
  0
ARC
  5
2ED
330
2B4
100
AcDbEntity
  8
実線
100
AcDbCircle
 10
26.90123758539633
 20
41.20208152801706
 30
0.0
 40
0.3
100
AcDbArc
 50
47.49427098777609
 51
90.0
  0
ARC
  5
2EE
330
2B4
100
AcDbEntity
  8
実線
100
AcDbCircle
 10
27.7179184719829
 20
41.5020815280171
 30
0.0
 40
0.5
100
AcDbArc
 50
246.4218215217994
 51
293.5781784782005
  0
ARC
  5
2EF
330
2B4
100
AcDbEntity
  8
実線
100
AcDbCircle
 10
25.53459935856944
 20
41.20208152801708
 30
0.0
 40
0.3
100
AcDbArc
 50
90.0
 51
132.5057290122239
  0
LINE
  5
2F0
330
2B4
100
AcDbEntity
  8
実線
100
AcDbLine
 10
26.90123758539633
 20
41.50208152801707
 30
0.0
 11
25.53459935856944
 21
41.5020815280171
 31
0.0
  0
LINE
  5
2F1
330
2B4
100
AcDbEntity
  8
実線
100
AcDbLine
 10
33.51791847198291
 20
41.0438239585215
 30
0.0
 11
33.10393676280398
 21
41.42324446224941
 31
0.0
  0
LINE
  5
2F2
330
2B4
100
AcDbEntity
  8
実線
100
AcDbLine
 10
30.91791847198289
 20
41.0438239585215
 30
0.0
 11
31.33190018116179
 21
41.42324446224944
 31
0.0
  0
ARC
  5
2F3
330
2B4
100
AcDbEntity
  8
実線
100
AcDbCircle
 10
31.53459935856944
 20
41.20208152801708
 30
0.0
 40
0.3
100
AcDbArc
 50
90.0
 51
132.5057290122239
  0
ARC
  5
2F4
330
2B4
100
AcDbEntity
  8
実線
100
AcDbCircle
 10
32.90123758539633
 20
41.20208152801706
 30
0.0
 40
0.3
100
AcDbArc
 50
47.49427098777609
 51
90.0
  0
LINE
  5
2F5
330
2B4
100
AcDbEntity
  8
実線
100
AcDbLine
 10
32.90123758539633
 20
41.50208152801707
 30
0.0
 11
31.53459935856944
 21
41.5020815280171
 31
0.0
  0
LINE
  5
2F6
330
2B4
100
AcDbEntity
  8
実線
100
AcDbLine
 10
30.51791847198291
 20
41.0438239585215
 30
0.0
 11
30.10393676280398
 21
41.42324446224941
 31
0.0
  0
ARC
  5
2F7
330
2B4
100
AcDbEntity
  8
実線
100
AcDbCircle
 10
29.90123758539633
 20
41.20208152801706
 30
0.0
 40
0.3
100
AcDbArc
 50
47.49427098777609
 51
90.0
  0
ARC
  5
2F8
330
2B4
100
AcDbEntity
  8
実線
100
AcDbCircle
 10
30.7179184719829
 20
41.5020815280171
 30
0.0
 40
0.5
100
AcDbArc
 50
246.4218215217994
 51
293.5781784782005
  0
LINE
  5
2F9
330
2B4
100
AcDbEntity
  8
実線
100
AcDbLine
 10
36.91791847198289
 20
41.0438239585215
 30
0.0
 11
37.33190018116179
 21
41.42324446224944
 31
0.0
  0
ARC
  5
2FA
330
2B4
100
AcDbEntity
  8
実線
100
AcDbCircle
 10
37.53459935856944
 20
41.20208152801708
 30
0.0
 40
0.3
100
AcDbArc
 50
90.0
 51
132.5057290122239
  0
LINE
  5
2FB
330
2B4
100
AcDbEntity
  8
実線
100
AcDbLine
 10
36.51791847198291
 20
41.0438239585215
 30
0.0
 11
36.10393676280398
 21
41.42324446224941
 31
0.0
  0
ARC
  5
2FC
330
2B4
100
AcDbEntity
  8
実線
100
AcDbCircle
 10
35.90123758539633
 20
41.20208152801706
 30
0.0
 40
0.3
100
AcDbArc
 50
47.49427098777609
 51
90.0
  0
ARC
  5
2FD
330
2B4
100
AcDbEntity
  8
実線
100
AcDbCircle
 10
36.7179184719829
 20
41.5020815280171
 30
0.0
 40
0.5
100
AcDbArc
 50
246.4218215217994
 51
293.5781784782005
  0
LINE
  5
2FE
330
2B4
100
AcDbEntity
  8
実線
100
AcDbLine
 10
33.91791847198289
 20
41.0438239585215
 30
0.0
 11
34.33190018116178
 21
41.42324446224944
 31
0.0
  0
ARC
  5
2FF
330
2B4
100
AcDbEntity
  8
実線
100
AcDbCircle
 10
34.53459935856944
 20
41.20208152801708
 30
0.0
 40
0.3
100
AcDbArc
 50
90.0
 51
132.5057290122239
  0
ARC
  5
300
330
2B4
100
AcDbEntity
  8
実線
100
AcDbCircle
 10
33.7179184719829
 20
41.5020815280171
 30
0.0
 40
0.5
100
AcDbArc
 50
246.4218215217994
 51
293.5781784782005
  0
LINE
  5
301
330
2B4
100
AcDbEntity
  8
実線
100
AcDbLine
 10
35.90123758539633
 20
41.50208152801707
 30
0.0
 11
34.53459935856944
 21
41.5020815280171
 31
0.0
  0
LINE
  5
302
330
2B4
100
AcDbEntity
  8
実線
100
AcDbLine
 10
50.27830322971164
 20
46.20208152801708
 30
0.0
 11
42.91987660947995
 21
46.20208152801711
 31
0.0
  0
LINE
  5
303
330
2B4
100
AcDbEntity
  8
実線
100
AcDbLine
 10
43.40165001784206
 20
44.41698617091526
 30
0.0
 11
39.95967464867846
 21
41.06441275939227
 31
0.0
  0
LINE
  5
304
330
2B4
100
AcDbEntity
  8
実線
100
AcDbLine
 10
42.71055390535832
 20
46.11698617091531
 30
0.0
 11
39.8052830386074
 21
43.28717688511886
 31
0.0
  0
ARC
  5
305
330
2B4
100
AcDbEntity
  8
実線
100
AcDbCircle
 10
39.59596033448577
 20
43.50208152801707
 30
0.0
 40
0.3
100
AcDbArc
 50
270.0
 51
314.2461516669302
  0
LINE
  5
306
330
2B4
100
AcDbEntity
  8
実線
100
AcDbLine
 10
39.51791847198291
 20
41.0438239585215
 30
0.0
 11
39.10393676280398
 21
41.42324446224941
 31
0.0
  0
ARC
  5
307
330
2B4
100
AcDbEntity
  8
実線
100
AcDbCircle
 10
39.7179184719829
 20
41.5020815280171
 30
0.0
 40
0.5
100
AcDbArc
 50
246.4218215217922
 51
322.3349536618381
  0
ARC
  5
308
330
2B4
100
AcDbEntity
  8
実線
100
AcDbCircle
 10
38.90123758539633
 20
41.20208152801706
 30
0.0
 40
0.3
100
AcDbArc
 50
47.49427098777609
 51
90.0
  0
ARC
  5
309
330
2B4
100
AcDbEntity
  8
実線
100
AcDbCircle
 10
43.61097272196369
 20
44.20208152801706
 30
0.0
 40
0.3
100
AcDbArc
 50
90.0
 51
134.2461516669291
  0
ARC
  5
30A
330
2B4
100
AcDbEntity
  8
実線
100
AcDbCircle
 10
42.91987660947995
 20
45.9020815280171
 30
0.0
 40
0.3
100
AcDbArc
 50
90.0
 51
134.2461516669291
  0
ARC
  5
30B
330
2B4
100
AcDbEntity
  8
実線
100
AcDbCircle
 10
51.31753371425407
 20
45.90208152801707
 30
0.0
 40
0.3
100
AcDbArc
 50
90.0
 51
150.0000000000265
  0
ARC
  5
30C
330
2B4
100
AcDbEntity
  8
実線
100
AcDbCircle
 10
50.27830322971164
 20
45.90208152801707
 30
0.0
 40
0.3
100
AcDbArc
 50
29.99999999997347
 51
90.0
  0
ARC
  5
30D
330
2B4
100
AcDbEntity
  8
実線
100
AcDbCircle
 10
50.79791847198285
 20
46.20208152801708
 30
0.0
 40
0.3
100
AcDbArc
 50
209.9999999999757
 51
330.0000000000243
  0
LINE
  5
30E
330
2B4
100
AcDbEntity
  8
実線
100
AcDbLine
 10
61.43843095577818
 20
43.20208152801709
 30
0.0
 11
66.49791847198287
 21
43.20208152801706
 31
0.0
  0
LINE
  5
30F
330
2B4
100
AcDbEntity
  8
実線
100
AcDbLine
 10
61.05886021427128
 20
41.0020815280171
 30
0.0
 11
64.29791847198291
 21
41.0020815280171
 31
0.0
  0
LINE
  5
310
330
2B4
100
AcDbEntity
  8
実線
100
AcDbLine
 10
58.0916349638932
 20
44.39413684791648
 30
0.0
 11
60.82839383039206
 21
41.11002620811777
 31
0.0
  0
LINE
  5
311
330
2B4
100
AcDbEntity
  8
実線
100
AcDbLine
 10
58.88787237206679
 20
46.09413684791644
 30
0.0
 11
61.20796457189896
 21
43.31002620811776
 31
0.0
  0
ARC
  5
312
330
2B4
100
AcDbEntity
  8
実線
100
AcDbCircle
 10
61.43843095577818
 20
43.5020815280171
 30
0.0
 40
0.3
100
AcDbArc
 50
219.8055710922642
 51
270.0
  0
ARC
  5
313
330
2B4
100
AcDbEntity
  8
実線
100
AcDbCircle
 10
61.05886021427128
 20
41.30208152801711
 30
0.0
 40
0.3
100
AcDbArc
 50
219.8055710922654
 51
270.0
  0
ARC
  5
314
330
2B4
100
AcDbEntity
  8
実線
100
AcDbCircle
 10
57.86116858001398
 20
44.20208152801714
 30
0.0
 40
0.3
100
AcDbArc
 50
39.8055710922654
 51
90.0
  0
ARC
  5
315
330
2B4
100
AcDbEntity
  8
実線
100
AcDbCircle
 10
58.65740598818757
 20
45.9020815280171
 30
0.0
 40
0.3
100
AcDbArc
 50
39.8055710922654
 51
90.0
  0
LINE
  5
316
330
2B4
100
AcDbEntity
  8
実線
100
AcDbLine
 10
64.89791847198296
 20
42.00208152801709
 30
0.0
 11
66.49791847198284
 21
42.00208152801709
 31
0.0
  0
LINE
  5
317
330
2B4
100
AcDbEntity
  8
実線
100
AcDbLine
 10
64.59791847198292
 20
41.30208152801711
 30
0.0
 11
64.59791847198295
 21
41.70208152801708
 31
0.0
  0
ARC
  5
318
330
2B4
100
AcDbEntity
  8
実線
100
AcDbCircle
 10
64.29791847198291
 20
41.30208152801711
 30
0.0
 40
0.3
100
AcDbArc
 50
270.0
 51
0.0
  0
ARC
  5
319
330
2B4
100
AcDbEntity
  8
実線
100
AcDbCircle
 10
64.89791847198296
 20
41.70208152801708
 30
0.0
 40
0.3
100
AcDbArc
 50
90.0
 51
180.0
  0
LINE
  5
31A
330
2B4
100
AcDbEntity
  8
実線
100
AcDbLine
 10
66.79791847198285
 20
42.30208152801711
 30
0.0
 11
66.79791847198288
 21
42.90208152801702
 31
0.0
  0
ARC
  5
31B
330
2B4
100
AcDbEntity
  8
実線
100
AcDbCircle
 10
66.49791847198284
 20
42.30208152801711
 30
0.0
 40
0.3
100
AcDbArc
 50
270.0
 51
0.0
  0
ARC
  5
31C
330
2B4
100
AcDbEntity
  8
実線
100
AcDbCircle
 10
66.49791847198287
 20
42.90208152801705
 30
0.0
 40
0.3
100
AcDbArc
 50
359.9999999999968
 51
90.0
  0
ENDBLK
  5
31E
330
2B4
100
AcDbEntity
  8
0
100
AcDbBlockEnd
  0
BLOCK
  5
38C
330
323
100
AcDbEntity
  8
0
100
AcDbBlockBegin
  2
A$C5A930C52
 70
     0
 10
0.0
 20
0.0
 30
0.0
  3
A$C5A930C52
  1

  0
LINE
  5
324
330
323
100
AcDbEntity
  8
実線
100
AcDbLine
 10
1.797918471982882
 20
4.202081528017089
 30
0.0
 11
1.797918471982825
 21
42.90208152801702
 31
0.0
  0
LINE
  5
325
330
323
100
AcDbEntity
  8
実線
100
AcDbLine
 10
3.497918471982842
 20
3.497918471982814
 30
0.0
 11
3.497918471982842
 21
41.20208152801706
 31
0.0
  0
LINE
  5
326
330
323
100
AcDbEntity
  8
実線
100
AcDbLine
 10
1.451040764008553
 20
1.451040764008524
 30
0.0
 11
3.497918471982842
 21
3.497918471982814
 31
0.0
  0
LINE
  5
327
330
323
100
AcDbEntity
  8
実線
100
AcDbLine
 10
0.2489592359914354
 20
2.653122292025642
 30
0.0
 11
1.797918471982882
 21
4.202081528017089
 31
0.0
  0
ARC
  5
328
330
323
100
AcDbEntity
  8
実線
100
AcDbCircle
 10
0.8499999999999943
 20
2.052081528017083
 30
0.0
 40
0.85
100
AcDbArc
 50
135.0
 51
315.0
  0
LINE
  5
329
330
323
100
AcDbEntity
  8
実線
100
AcDbLine
 10
5.90123758539633
 20
41.50208152801707
 30
0.0
 11
3.797918471982853
 21
41.50208152801707
 31
0.0
  0
ARC
  5
32A
330
323
100
AcDbEntity
  8
実線
100
AcDbCircle
 10
2.097918471982836
 20
42.90208152801702
 30
0.0
 40
0.3
100
AcDbArc
 50
90.0
 51
180.0
  0
ARC
  5
32B
330
323
100
AcDbEntity
  8
実線
100
AcDbCircle
 10
3.797918471982853
 20
41.20208152801706
 30
0.0
 40
0.3
100
AcDbArc
 50
90.0
 51
180.0
  0
LINE
  5
32C
330
323
100
AcDbEntity
  8
実線
100
AcDbLine
 10
6.917918471982886
 20
41.0438239585215
 30
0.0
 11
7.331900181161785
 21
41.42324446224944
 31
0.0
  0
ARC
  5
32D
330
323
100
AcDbEntity
  8
実線
100
AcDbCircle
 10
7.534599358569437
 20
41.20208152801708
 30
0.0
 40
0.3
100
AcDbArc
 50
90.0
 51
132.5057290122239
  0
ARC
  5
32E
330
323
100
AcDbEntity
  8
実線
100
AcDbCircle
 10
6.717918471982898
 20
41.5020815280171
 30
0.0
 40
0.5
100
AcDbArc
 50
246.4218215217994
 51
293.5781784782005
  0
ARC
  5
32F
330
323
100
AcDbEntity
  8
実線
100
AcDbCircle
 10
5.90123758539633
 20
41.20208152801706
 30
0.0
 40
0.3
100
AcDbArc
 50
47.49427098777609
 51
90.0
  0
LINE
  5
330
330
323
100
AcDbEntity
  8
実線
100
AcDbLine
 10
6.517918471982909
 20
41.0438239585215
 30
0.0
 11
6.103936762803982
 21
41.42324446224941
 31
0.0
  0
LINE
  5
331
330
323
100
AcDbEntity
  8
実線
100
AcDbLine
 10
57.86116858001398
 20
44.50208152801716
 30
0.0
 11
43.61097272196369
 21
44.50208152801707
 31
0.0
  0
LINE
  5
332
330
323
100
AcDbEntity
  8
実線
100
AcDbLine
 10
58.65740598818757
 20
46.20208152801711
 30
0.0
 11
51.31753371425407
 21
46.20208152801708
 31
0.0
  0
LINE
  5
333
330
323
100
AcDbEntity
  8
実線
100
AcDbLine
 10
39.59596033448577
 20
43.20208152801706
 30
0.0
 11
2.097918471982836
 21
43.20208152801703
 31
0.0
  0
LINE
  5
334
330
323
100
AcDbEntity
  8
実線
100
AcDbLine
 10
21.51791847198291
 20
41.0438239585215
 30
0.0
 11
21.10393676280398
 21
41.42324446224941
 31
0.0
  0
LINE
  5
335
330
323
100
AcDbEntity
  8
実線
100
AcDbLine
 10
12.91791847198288
 20
41.0438239585215
 30
0.0
 11
13.33190018116178
 21
41.42324446224944
 31
0.0
  0
LINE
  5
336
330
323
100
AcDbEntity
  8
実線
100
AcDbLine
 10
8.90123758539633
 20
41.50208152801707
 30
0.0
 11
7.534599358569437
 21
41.50208152801707
 31
0.0
  0
LINE
  5
337
330
323
100
AcDbEntity
  8
実線
100
AcDbLine
 10
12.51791847198291
 20
41.0438239585215
 30
0.0
 11
12.10393676280398
 21
41.42324446224941
 31
0.0
  0
ARC
  5
338
330
323
100
AcDbEntity
  8
実線
100
AcDbCircle
 10
11.90123758539633
 20
41.20208152801706
 30
0.0
 40
0.3
100
AcDbArc
 50
47.49427098777609
 51
90.0
  0
ARC
  5
339
330
323
100
AcDbEntity
  8
実線
100
AcDbCircle
 10
12.7179184719829
 20
41.5020815280171
 30
0.0
 40
0.5
100
AcDbArc
 50
246.4218215217994
 51
293.5781784782005
  0
ARC
  5
33A
330
323
100
AcDbEntity
  8
実線
100
AcDbCircle
 10
10.53459935856944
 20
41.20208152801708
 30
0.0
 40
0.3
100
AcDbArc
 50
90.0
 51
132.5057290122239
  0
LINE
  5
33B
330
323
100
AcDbEntity
  8
実線
100
AcDbLine
 10
11.90123758539633
 20
41.50208152801707
 30
0.0
 11
10.53459935856944
 21
41.5020815280171
 31
0.0
  0
LINE
  5
33C
330
323
100
AcDbEntity
  8
実線
100
AcDbLine
 10
9.517918471982909
 20
41.0438239585215
 30
0.0
 11
9.103936762803982
 21
41.42324446224941
 31
0.0
  0
ARC
  5
33D
330
323
100
AcDbEntity
  8
実線
100
AcDbCircle
 10
8.90123758539633
 20
41.20208152801706
 30
0.0
 40
0.3
100
AcDbArc
 50
47.49427098777609
 51
90.0
  0
ARC
  5
33E
330
323
100
AcDbEntity
  8
実線
100
AcDbCircle
 10
9.717918471982898
 20
41.5020815280171
 30
0.0
 40
0.5
100
AcDbArc
 50
246.4218215217994
 51
293.5781784782005
  0
LINE
  5
33F
330
323
100
AcDbEntity
  8
実線
100
AcDbLine
 10
9.917918471982886
 20
41.0438239585215
 30
0.0
 11
10.33190018116178
 21
41.42324446224944
 31
0.0
  0
LINE
  5
340
330
323
100
AcDbEntity
  8
実線
100
AcDbLine
 10
17.90123758539633
 20
41.50208152801707
 30
0.0
 11
16.53459935856943
 21
41.5020815280171
 31
0.0
  0
LINE
  5
341
330
323
100
AcDbEntity
  8
実線
100
AcDbLine
 10
15.91791847198289
 20
41.0438239585215
 30
0.0
 11
16.33190018116178
 21
41.42324446224944
 31
0.0
  0
ARC
  5
342
330
323
100
AcDbEntity
  8
実線
100
AcDbCircle
 10
16.53459935856943
 20
41.20208152801708
 30
0.0
 40
0.3
100
AcDbArc
 50
90.0
 51
132.5057290122239
  0
LINE
  5
343
330
323
100
AcDbEntity
  8
実線
100
AcDbLine
 10
15.51791847198291
 20
41.0438239585215
 30
0.0
 11
15.10393676280398
 21
41.42324446224941
 31
0.0
  0
ARC
  5
344
330
323
100
AcDbEntity
  8
実線
100
AcDbCircle
 10
14.90123758539633
 20
41.20208152801706
 30
0.0
 40
0.3
100
AcDbArc
 50
47.49427098777609
 51
90.0
  0
ARC
  5
345
330
323
100
AcDbEntity
  8
実線
100
AcDbCircle
 10
15.7179184719829
 20
41.5020815280171
 30
0.0
 40
0.5
100
AcDbArc
 50
246.4218215217994
 51
293.5781784782005
  0
ARC
  5
346
330
323
100
AcDbEntity
  8
実線
100
AcDbCircle
 10
13.53459935856944
 20
41.20208152801708
 30
0.0
 40
0.3
100
AcDbArc
 50
90.0
 51
132.5057290122239
  0
LINE
  5
347
330
323
100
AcDbEntity
  8
実線
100
AcDbLine
 10
14.90123758539633
 20
41.50208152801707
 30
0.0
 11
13.53459935856944
 21
41.5020815280171
 31
0.0
  0
ARC
  5
348
330
323
100
AcDbEntity
  8
実線
100
AcDbCircle
 10
20.90123758539633
 20
41.20208152801706
 30
0.0
 40
0.3
100
AcDbArc
 50
47.49427098777609
 51
90.0
  0
LINE
  5
349
330
323
100
AcDbEntity
  8
実線
100
AcDbLine
 10
18.91791847198289
 20
41.0438239585215
 30
0.0
 11
19.33190018116178
 21
41.42324446224944
 31
0.0
  0
ARC
  5
34A
330
323
100
AcDbEntity
  8
実線
100
AcDbCircle
 10
19.53459935856944
 20
41.20208152801708
 30
0.0
 40
0.3
100
AcDbArc
 50
90.0
 51
132.5057290122239
  0
ARC
  5
34B
330
323
100
AcDbEntity
  8
実線
100
AcDbCircle
 10
18.7179184719829
 20
41.5020815280171
 30
0.0
 40
0.5
100
AcDbArc
 50
246.4218215217994
 51
293.5781784782005
  0
LINE
  5
34C
330
323
100
AcDbEntity
  8
実線
100
AcDbLine
 10
20.90123758539633
 20
41.50208152801707
 30
0.0
 11
19.53459935856944
 21
41.5020815280171
 31
0.0
  0
ARC
  5
34D
330
323
100
AcDbEntity
  8
実線
100
AcDbCircle
 10
17.90123758539633
 20
41.20208152801706
 30
0.0
 40
0.3
100
AcDbArc
 50
47.49427098777609
 51
90.0
  0
LINE
  5
34E
330
323
100
AcDbEntity
  8
実線
100
AcDbLine
 10
18.51791847198291
 20
41.0438239585215
 30
0.0
 11
18.10393676280398
 21
41.42324446224941
 31
0.0
  0
LINE
  5
34F
330
323
100
AcDbEntity
  8
実線
100
AcDbLine
 10
38.90123758539633
 20
41.50208152801707
 30
0.0
 11
37.53459935856944
 21
41.5020815280171
 31
0.0
  0
LINE
  5
350
330
323
100
AcDbEntity
  8
実線
100
AcDbLine
 10
29.90123758539633
 20
41.50208152801707
 30
0.0
 11
28.53459935856944
 21
41.50208152801707
 31
0.0
  0
LINE
  5
351
330
323
100
AcDbEntity
  8
実線
100
AcDbLine
 10
24.91791847198289
 20
41.0438239585215
 30
0.0
 11
25.33190018116179
 21
41.42324446224944
 31
0.0
  0
LINE
  5
352
330
323
100
AcDbEntity
  8
実線
100
AcDbLine
 10
24.51791847198291
 20
41.0438239585215
 30
0.0
 11
24.10393676280398
 21
41.42324446224941
 31
0.0
  0
ARC
  5
353
330
323
100
AcDbEntity
  8
実線
100
AcDbCircle
 10
24.7179184719829
 20
41.5020815280171
 30
0.0
 40
0.5
100
AcDbArc
 50
246.4218215217994
 51
293.5781784782005
  0
ARC
  5
354
330
323
100
AcDbEntity
  8
実線
100
AcDbCircle
 10
23.90123758539633
 20
41.20208152801706
 30
0.0
 40
0.3
100
AcDbArc
 50
47.49427098777609
 51
90.0
  0
LINE
  5
355
330
323
100
AcDbEntity
  8
実線
100
AcDbLine
 10
21.91791847198289
 20
41.0438239585215
 30
0.0
 11
22.33190018116179
 21
41.42324446224944
 31
0.0
  0
ARC
  5
356
330
323
100
AcDbEntity
  8
実線
100
AcDbCircle
 10
22.53459935856944
 20
41.20208152801708
 30
0.0
 40
0.3
100
AcDbArc
 50
90.0
 51
132.5057290122239
  0
ARC
  5
357
330
323
100
AcDbEntity
  8
実線
100
AcDbCircle
 10
21.7179184719829
 20
41.5020815280171
 30
0.0
 40
0.5
100
AcDbArc
 50
246.4218215217994
 51
293.5781784782005
  0
LINE
  5
358
330
323
100
AcDbEntity
  8
実線
100
AcDbLine
 10
23.90123758539633
 20
41.50208152801707
 30
0.0
 11
22.53459935856944
 21
41.5020815280171
 31
0.0
  0
LINE
  5
359
330
323
100
AcDbEntity
  8
実線
100
AcDbLine
 10
27.91791847198289
 20
41.0438239585215
 30
0.0
 11
28.33190018116179
 21
41.42324446224944
 31
0.0
  0
ARC
  5
35A
330
323
100
AcDbEntity
  8
実線
100
AcDbCircle
 10
28.53459935856944
 20
41.20208152801708
 30
0.0
 40
0.3
100
AcDbArc
 50
90.0
 51
132.5057290122239
  0
LINE
  5
35B
330
323
100
AcDbEntity
  8
実線
100
AcDbLine
 10
27.51791847198291
 20
41.0438239585215
 30
0.0
 11
27.10393676280399
 21
41.42324446224941
 31
0.0
  0
ARC
  5
35C
330
323
100
AcDbEntity
  8
実線
100
AcDbCircle
 10
26.90123758539633
 20
41.20208152801706
 30
0.0
 40
0.3
100
AcDbArc
 50
47.49427098777609
 51
90.0
  0
ARC
  5
35D
330
323
100
AcDbEntity
  8
実線
100
AcDbCircle
 10
27.7179184719829
 20
41.5020815280171
 30
0.0
 40
0.5
100
AcDbArc
 50
246.4218215217994
 51
293.5781784782005
  0
ARC
  5
35E
330
323
100
AcDbEntity
  8
実線
100
AcDbCircle
 10
25.53459935856944
 20
41.20208152801708
 30
0.0
 40
0.3
100
AcDbArc
 50
90.0
 51
132.5057290122239
  0
LINE
  5
35F
330
323
100
AcDbEntity
  8
実線
100
AcDbLine
 10
26.90123758539633
 20
41.50208152801707
 30
0.0
 11
25.53459935856944
 21
41.5020815280171
 31
0.0
  0
LINE
  5
360
330
323
100
AcDbEntity
  8
実線
100
AcDbLine
 10
33.51791847198291
 20
41.0438239585215
 30
0.0
 11
33.10393676280398
 21
41.42324446224941
 31
0.0
  0
LINE
  5
361
330
323
100
AcDbEntity
  8
実線
100
AcDbLine
 10
30.91791847198289
 20
41.0438239585215
 30
0.0
 11
31.33190018116179
 21
41.42324446224944
 31
0.0
  0
ARC
  5
362
330
323
100
AcDbEntity
  8
実線
100
AcDbCircle
 10
31.53459935856944
 20
41.20208152801708
 30
0.0
 40
0.3
100
AcDbArc
 50
90.0
 51
132.5057290122239
  0
ARC
  5
363
330
323
100
AcDbEntity
  8
実線
100
AcDbCircle
 10
32.90123758539633
 20
41.20208152801706
 30
0.0
 40
0.3
100
AcDbArc
 50
47.49427098777609
 51
90.0
  0
LINE
  5
364
330
323
100
AcDbEntity
  8
実線
100
AcDbLine
 10
32.90123758539633
 20
41.50208152801707
 30
0.0
 11
31.53459935856944
 21
41.5020815280171
 31
0.0
  0
LINE
  5
365
330
323
100
AcDbEntity
  8
実線
100
AcDbLine
 10
30.51791847198291
 20
41.0438239585215
 30
0.0
 11
30.10393676280398
 21
41.42324446224941
 31
0.0
  0
ARC
  5
366
330
323
100
AcDbEntity
  8
実線
100
AcDbCircle
 10
29.90123758539633
 20
41.20208152801706
 30
0.0
 40
0.3
100
AcDbArc
 50
47.49427098777609
 51
90.0
  0
ARC
  5
367
330
323
100
AcDbEntity
  8
実線
100
AcDbCircle
 10
30.7179184719829
 20
41.5020815280171
 30
0.0
 40
0.5
100
AcDbArc
 50
246.4218215217994
 51
293.5781784782005
  0
LINE
  5
368
330
323
100
AcDbEntity
  8
実線
100
AcDbLine
 10
36.91791847198289
 20
41.0438239585215
 30
0.0
 11
37.33190018116179
 21
41.42324446224944
 31
0.0
  0
ARC
  5
369
330
323
100
AcDbEntity
  8
実線
100
AcDbCircle
 10
37.53459935856944
 20
41.20208152801708
 30
0.0
 40
0.3
100
AcDbArc
 50
90.0
 51
132.5057290122239
  0
LINE
  5
36A
330
323
100
AcDbEntity
  8
実線
100
AcDbLine
 10
36.51791847198291
 20
41.0438239585215
 30
0.0
 11
36.10393676280398
 21
41.42324446224941
 31
0.0
  0
ARC
  5
36B
330
323
100
AcDbEntity
  8
実線
100
AcDbCircle
 10
35.90123758539633
 20
41.20208152801706
 30
0.0
 40
0.3
100
AcDbArc
 50
47.49427098777609
 51
90.0
  0
ARC
  5
36C
330
323
100
AcDbEntity
  8
実線
100
AcDbCircle
 10
36.7179184719829
 20
41.5020815280171
 30
0.0
 40
0.5
100
AcDbArc
 50
246.4218215217994
 51
293.5781784782005
  0
LINE
  5
36D
330
323
100
AcDbEntity
  8
実線
100
AcDbLine
 10
33.91791847198289
 20
41.0438239585215
 30
0.0
 11
34.33190018116178
 21
41.42324446224944
 31
0.0
  0
ARC
  5
36E
330
323
100
AcDbEntity
  8
実線
100
AcDbCircle
 10
34.53459935856944
 20
41.20208152801708
 30
0.0
 40
0.3
100
AcDbArc
 50
90.0
 51
132.5057290122239
  0
ARC
  5
36F
330
323
100
AcDbEntity
  8
実線
100
AcDbCircle
 10
33.7179184719829
 20
41.5020815280171
 30
0.0
 40
0.5
100
AcDbArc
 50
246.4218215217994
 51
293.5781784782005
  0
LINE
  5
370
330
323
100
AcDbEntity
  8
実線
100
AcDbLine
 10
35.90123758539633
 20
41.50208152801707
 30
0.0
 11
34.53459935856944
 21
41.5020815280171
 31
0.0
  0
LINE
  5
371
330
323
100
AcDbEntity
  8
実線
100
AcDbLine
 10
50.27830322971164
 20
46.20208152801708
 30
0.0
 11
42.91987660947995
 21
46.20208152801711
 31
0.0
  0
LINE
  5
372
330
323
100
AcDbEntity
  8
実線
100
AcDbLine
 10
43.40165001784206
 20
44.41698617091526
 30
0.0
 11
39.95967464867846
 21
41.06441275939227
 31
0.0
  0
LINE
  5
373
330
323
100
AcDbEntity
  8
実線
100
AcDbLine
 10
42.71055390535832
 20
46.11698617091531
 30
0.0
 11
39.8052830386074
 21
43.28717688511886
 31
0.0
  0
ARC
  5
374
330
323
100
AcDbEntity
  8
実線
100
AcDbCircle
 10
39.59596033448577
 20
43.50208152801707
 30
0.0
 40
0.3
100
AcDbArc
 50
270.0
 51
314.2461516669302
  0
LINE
  5
375
330
323
100
AcDbEntity
  8
実線
100
AcDbLine
 10
39.51791847198291
 20
41.0438239585215
 30
0.0
 11
39.10393676280398
 21
41.42324446224941
 31
0.0
  0
ARC
  5
376
330
323
100
AcDbEntity
  8
実線
100
AcDbCircle
 10
39.7179184719829
 20
41.5020815280171
 30
0.0
 40
0.5
100
AcDbArc
 50
246.4218215217922
 51
322.3349536618381
  0
ARC
  5
377
330
323
100
AcDbEntity
  8
実線
100
AcDbCircle
 10
38.90123758539633
 20
41.20208152801706
 30
0.0
 40
0.3
100
AcDbArc
 50
47.49427098777609
 51
90.0
  0
ARC
  5
378
330
323
100
AcDbEntity
  8
実線
100
AcDbCircle
 10
43.61097272196369
 20
44.20208152801706
 30
0.0
 40
0.3
100
AcDbArc
 50
90.0
 51
134.2461516669291
  0
ARC
  5
379
330
323
100
AcDbEntity
  8
実線
100
AcDbCircle
 10
42.91987660947995
 20
45.9020815280171
 30
0.0
 40
0.3
100
AcDbArc
 50
90.0
 51
134.2461516669291
  0
ARC
  5
37A
330
323
100
AcDbEntity
  8
実線
100
AcDbCircle
 10
51.31753371425407
 20
45.90208152801707
 30
0.0
 40
0.3
100
AcDbArc
 50
90.0
 51
150.0000000000265
  0
ARC
  5
37B
330
323
100
AcDbEntity
  8
実線
100
AcDbCircle
 10
50.27830322971164
 20
45.90208152801707
 30
0.0
 40
0.3
100
AcDbArc
 50
29.99999999997347
 51
90.0
  0
ARC
  5
37C
330
323
100
AcDbEntity
  8
実線
100
AcDbCircle
 10
50.79791847198285
 20
46.20208152801708
 30
0.0
 40
0.3
100
AcDbArc
 50
209.9999999999757
 51
330.0000000000243
  0
LINE
  5
37D
330
323
100
AcDbEntity
  8
実線
100
AcDbLine
 10
61.43843095577818
 20
43.20208152801709
 30
0.0
 11
66.49791847198287
 21
43.20208152801706
 31
0.0
  0
LINE
  5
37E
330
323
100
AcDbEntity
  8
実線
100
AcDbLine
 10
61.05886021427128
 20
41.0020815280171
 30
0.0
 11
64.29791847198291
 21
41.0020815280171
 31
0.0
  0
LINE
  5
37F
330
323
100
AcDbEntity
  8
実線
100
AcDbLine
 10
58.0916349638932
 20
44.39413684791648
 30
0.0
 11
60.82839383039206
 21
41.11002620811777
 31
0.0
  0
LINE
  5
380
330
323
100
AcDbEntity
  8
実線
100
AcDbLine
 10
58.88787237206679
 20
46.09413684791644
 30
0.0
 11
61.20796457189896
 21
43.31002620811776
 31
0.0
  0
ARC
  5
381
330
323
100
AcDbEntity
  8
実線
100
AcDbCircle
 10
61.43843095577818
 20
43.5020815280171
 30
0.0
 40
0.3
100
AcDbArc
 50
219.8055710922642
 51
270.0
  0
ARC
  5
382
330
323
100
AcDbEntity
  8
実線
100
AcDbCircle
 10
61.05886021427128
 20
41.30208152801711
 30
0.0
 40
0.3
100
AcDbArc
 50
219.8055710922654
 51
270.0
  0
ARC
  5
383
330
323
100
AcDbEntity
  8
実線
100
AcDbCircle
 10
57.86116858001398
 20
44.20208152801714
 30
0.0
 40
0.3
100
AcDbArc
 50
39.8055710922654
 51
90.0
  0
ARC
  5
384
330
323
100
AcDbEntity
  8
実線
100
AcDbCircle
 10
58.65740598818757
 20
45.9020815280171
 30
0.0
 40
0.3
100
AcDbArc
 50
39.8055710922654
 51
90.0
  0
LINE
  5
385
330
323
100
AcDbEntity
  8
実線
100
AcDbLine
 10
64.89791847198296
 20
42.00208152801709
 30
0.0
 11
66.49791847198284
 21
42.00208152801709
 31
0.0
  0
LINE
  5
386
330
323
100
AcDbEntity
  8
実線
100
AcDbLine
 10
64.59791847198292
 20
41.30208152801711
 30
0.0
 11
64.59791847198295
 21
41.70208152801708
 31
0.0
  0
ARC
  5
387
330
323
100
AcDbEntity
  8
実線
100
AcDbCircle
 10
64.29791847198291
 20
41.30208152801711
 30
0.0
 40
0.3
100
AcDbArc
 50
270.0
 51
0.0
  0
ARC
  5
388
330
323
100
AcDbEntity
  8
実線
100
AcDbCircle
 10
64.89791847198296
 20
41.70208152801708
 30
0.0
 40
0.3
100
AcDbArc
 50
90.0
 51
180.0
  0
LINE
  5
389
330
323
100
AcDbEntity
  8
実線
100
AcDbLine
 10
66.79791847198285
 20
42.30208152801711
 30
0.0
 11
66.79791847198288
 21
42.90208152801702
 31
0.0
  0
ARC
  5
38A
330
323
100
AcDbEntity
  8
実線
100
AcDbCircle
 10
66.49791847198284
 20
42.30208152801711
 30
0.0
 40
0.3
100
AcDbArc
 50
270.0
 51
0.0
  0
ARC
  5
38B
330
323
100
AcDbEntity
  8
実線
100
AcDbCircle
 10
66.49791847198287
 20
42.90208152801705
 30
0.0
 40
0.3
100
AcDbArc
 50
359.9999999999968
 51
90.0
  0
ENDBLK
  5
38D
330
323
100
AcDbEntity
  8
0
100
AcDbBlockEnd
  0
BLOCK
  5
3FD
330
394
100
AcDbEntity
  8
0
100
AcDbBlockBegin
  2
A$C7F4252DC
 70
     0
 10
0.0
 20
0.0
 30
0.0
  3
A$C7F4252DC
  1

  0
LINE
  5
395
330
394
100
AcDbEntity
  8
実線
100
AcDbLine
 10
1.797918471982882
 20
4.202081528017089
 30
0.0
 11
1.797918471982825
 21
42.90208152801702
 31
0.0
  0
LINE
  5
396
330
394
100
AcDbEntity
  8
実線
100
AcDbLine
 10
3.497918471982842
 20
3.497918471982814
 30
0.0
 11
3.497918471982842
 21
41.20208152801706
 31
0.0
  0
LINE
  5
397
330
394
100
AcDbEntity
  8
実線
100
AcDbLine
 10
1.451040764008553
 20
1.451040764008524
 30
0.0
 11
3.497918471982842
 21
3.497918471982814
 31
0.0
  0
LINE
  5
398
330
394
100
AcDbEntity
  8
実線
100
AcDbLine
 10
0.2489592359914354
 20
2.653122292025642
 30
0.0
 11
1.797918471982882
 21
4.202081528017089
 31
0.0
  0
ARC
  5
399
330
394
100
AcDbEntity
  8
実線
100
AcDbCircle
 10
0.8499999999999943
 20
2.052081528017083
 30
0.0
 40
0.85
100
AcDbArc
 50
135.0
 51
315.0
  0
LINE
  5
39A
330
394
100
AcDbEntity
  8
実線
100
AcDbLine
 10
5.90123758539633
 20
41.50208152801707
 30
0.0
 11
3.797918471982853
 21
41.50208152801707
 31
0.0
  0
ARC
  5
39B
330
394
100
AcDbEntity
  8
実線
100
AcDbCircle
 10
2.097918471982836
 20
42.90208152801702
 30
0.0
 40
0.3
100
AcDbArc
 50
90.0
 51
180.0
  0
ARC
  5
39C
330
394
100
AcDbEntity
  8
実線
100
AcDbCircle
 10
3.797918471982853
 20
41.20208152801706
 30
0.0
 40
0.3
100
AcDbArc
 50
90.0
 51
180.0
  0
LINE
  5
39D
330
394
100
AcDbEntity
  8
実線
100
AcDbLine
 10
6.917918471982886
 20
41.0438239585215
 30
0.0
 11
7.331900181161785
 21
41.42324446224944
 31
0.0
  0
ARC
  5
39E
330
394
100
AcDbEntity
  8
実線
100
AcDbCircle
 10
7.534599358569437
 20
41.20208152801708
 30
0.0
 40
0.3
100
AcDbArc
 50
90.0
 51
132.5057290122239
  0
ARC
  5
39F
330
394
100
AcDbEntity
  8
実線
100
AcDbCircle
 10
6.717918471982898
 20
41.5020815280171
 30
0.0
 40
0.5
100
AcDbArc
 50
246.4218215217994
 51
293.5781784782005
  0
ARC
  5
3A0
330
394
100
AcDbEntity
  8
実線
100
AcDbCircle
 10
5.90123758539633
 20
41.20208152801706
 30
0.0
 40
0.3
100
AcDbArc
 50
47.49427098777609
 51
90.0
  0
LINE
  5
3A1
330
394
100
AcDbEntity
  8
実線
100
AcDbLine
 10
6.517918471982909
 20
41.0438239585215
 30
0.0
 11
6.103936762803982
 21
41.42324446224941
 31
0.0
  0
LINE
  5
3A2
330
394
100
AcDbEntity
  8
実線
100
AcDbLine
 10
57.86116858001398
 20
44.50208152801716
 30
0.0
 11
43.61097272196369
 21
44.50208152801707
 31
0.0
  0
LINE
  5
3A3
330
394
100
AcDbEntity
  8
実線
100
AcDbLine
 10
58.65740598818757
 20
46.20208152801711
 30
0.0
 11
51.31753371425407
 21
46.20208152801708
 31
0.0
  0
LINE
  5
3A4
330
394
100
AcDbEntity
  8
実線
100
AcDbLine
 10
39.59596033448577
 20
43.20208152801706
 30
0.0
 11
2.097918471982836
 21
43.20208152801703
 31
0.0
  0
LINE
  5
3A5
330
394
100
AcDbEntity
  8
実線
100
AcDbLine
 10
21.51791847198291
 20
41.0438239585215
 30
0.0
 11
21.10393676280398
 21
41.42324446224941
 31
0.0
  0
LINE
  5
3A6
330
394
100
AcDbEntity
  8
実線
100
AcDbLine
 10
12.91791847198288
 20
41.0438239585215
 30
0.0
 11
13.33190018116178
 21
41.42324446224944
 31
0.0
  0
LINE
  5
3A7
330
394
100
AcDbEntity
  8
実線
100
AcDbLine
 10
8.90123758539633
 20
41.50208152801707
 30
0.0
 11
7.534599358569437
 21
41.50208152801707
 31
0.0
  0
LINE
  5
3A8
330
394
100
AcDbEntity
  8
実線
100
AcDbLine
 10
12.51791847198291
 20
41.0438239585215
 30
0.0
 11
12.10393676280398
 21
41.42324446224941
 31
0.0
  0
ARC
  5
3A9
330
394
100
AcDbEntity
  8
実線
100
AcDbCircle
 10
11.90123758539633
 20
41.20208152801706
 30
0.0
 40
0.3
100
AcDbArc
 50
47.49427098777609
 51
90.0
  0
ARC
  5
3AA
330
394
100
AcDbEntity
  8
実線
100
AcDbCircle
 10
12.7179184719829
 20
41.5020815280171
 30
0.0
 40
0.5
100
AcDbArc
 50
246.4218215217994
 51
293.5781784782005
  0
ARC
  5
3AB
330
394
100
AcDbEntity
  8
実線
100
AcDbCircle
 10
10.53459935856944
 20
41.20208152801708
 30
0.0
 40
0.3
100
AcDbArc
 50
90.0
 51
132.5057290122239
  0
LINE
  5
3AC
330
394
100
AcDbEntity
  8
実線
100
AcDbLine
 10
11.90123758539633
 20
41.50208152801707
 30
0.0
 11
10.53459935856944
 21
41.5020815280171
 31
0.0
  0
LINE
  5
3AD
330
394
100
AcDbEntity
  8
実線
100
AcDbLine
 10
9.517918471982909
 20
41.0438239585215
 30
0.0
 11
9.103936762803982
 21
41.42324446224941
 31
0.0
  0
ARC
  5
3AE
330
394
100
AcDbEntity
  8
実線
100
AcDbCircle
 10
8.90123758539633
 20
41.20208152801706
 30
0.0
 40
0.3
100
AcDbArc
 50
47.49427098777609
 51
90.0
  0
ARC
  5
3AF
330
394
100
AcDbEntity
  8
実線
100
AcDbCircle
 10
9.717918471982898
 20
41.5020815280171
 30
0.0
 40
0.5
100
AcDbArc
 50
246.4218215217994
 51
293.5781784782005
  0
LINE
  5
3B0
330
394
100
AcDbEntity
  8
実線
100
AcDbLine
 10
9.917918471982886
 20
41.0438239585215
 30
0.0
 11
10.33190018116178
 21
41.42324446224944
 31
0.0
  0
LINE
  5
3B1
330
394
100
AcDbEntity
  8
実線
100
AcDbLine
 10
17.90123758539633
 20
41.50208152801707
 30
0.0
 11
16.53459935856943
 21
41.5020815280171
 31
0.0
  0
LINE
  5
3B2
330
394
100
AcDbEntity
  8
実線
100
AcDbLine
 10
15.91791847198289
 20
41.0438239585215
 30
0.0
 11
16.33190018116178
 21
41.42324446224944
 31
0.0
  0
ARC
  5
3B3
330
394
100
AcDbEntity
  8
実線
100
AcDbCircle
 10
16.53459935856943
 20
41.20208152801708
 30
0.0
 40
0.3
100
AcDbArc
 50
90.0
 51
132.5057290122239
  0
LINE
  5
3B4
330
394
100
AcDbEntity
  8
実線
100
AcDbLine
 10
15.51791847198291
 20
41.0438239585215
 30
0.0
 11
15.10393676280398
 21
41.42324446224941
 31
0.0
  0
ARC
  5
3B5
330
394
100
AcDbEntity
  8
実線
100
AcDbCircle
 10
14.90123758539633
 20
41.20208152801706
 30
0.0
 40
0.3
100
AcDbArc
 50
47.49427098777609
 51
90.0
  0
ARC
  5
3B6
330
394
100
AcDbEntity
  8
実線
100
AcDbCircle
 10
15.7179184719829
 20
41.5020815280171
 30
0.0
 40
0.5
100
AcDbArc
 50
246.4218215217994
 51
293.5781784782005
  0
ARC
  5
3B7
330
394
100
AcDbEntity
  8
実線
100
AcDbCircle
 10
13.53459935856944
 20
41.20208152801708
 30
0.0
 40
0.3
100
AcDbArc
 50
90.0
 51
132.5057290122239
  0
LINE
  5
3B8
330
394
100
AcDbEntity
  8
実線
100
AcDbLine
 10
14.90123758539633
 20
41.50208152801707
 30
0.0
 11
13.53459935856944
 21
41.5020815280171
 31
0.0
  0
ARC
  5
3B9
330
394
100
AcDbEntity
  8
実線
100
AcDbCircle
 10
20.90123758539633
 20
41.20208152801706
 30
0.0
 40
0.3
100
AcDbArc
 50
47.49427098777609
 51
90.0
  0
LINE
  5
3BA
330
394
100
AcDbEntity
  8
実線
100
AcDbLine
 10
18.91791847198289
 20
41.0438239585215
 30
0.0
 11
19.33190018116178
 21
41.42324446224944
 31
0.0
  0
ARC
  5
3BB
330
394
100
AcDbEntity
  8
実線
100
AcDbCircle
 10
19.53459935856944
 20
41.20208152801708
 30
0.0
 40
0.3
100
AcDbArc
 50
90.0
 51
132.5057290122239
  0
ARC
  5
3BC
330
394
100
AcDbEntity
  8
実線
100
AcDbCircle
 10
18.7179184719829
 20
41.5020815280171
 30
0.0
 40
0.5
100
AcDbArc
 50
246.4218215217994
 51
293.5781784782005
  0
LINE
  5
3BD
330
394
100
AcDbEntity
  8
実線
100
AcDbLine
 10
20.90123758539633
 20
41.50208152801707
 30
0.0
 11
19.53459935856944
 21
41.5020815280171
 31
0.0
  0
ARC
  5
3BE
330
394
100
AcDbEntity
  8
実線
100
AcDbCircle
 10
17.90123758539633
 20
41.20208152801706
 30
0.0
 40
0.3
100
AcDbArc
 50
47.49427098777609
 51
90.0
  0
LINE
  5
3BF
330
394
100
AcDbEntity
  8
実線
100
AcDbLine
 10
18.51791847198291
 20
41.0438239585215
 30
0.0
 11
18.10393676280398
 21
41.42324446224941
 31
0.0
  0
LINE
  5
3C0
330
394
100
AcDbEntity
  8
実線
100
AcDbLine
 10
38.90123758539633
 20
41.50208152801707
 30
0.0
 11
37.53459935856944
 21
41.5020815280171
 31
0.0
  0
LINE
  5
3C1
330
394
100
AcDbEntity
  8
実線
100
AcDbLine
 10
29.90123758539633
 20
41.50208152801707
 30
0.0
 11
28.53459935856944
 21
41.50208152801707
 31
0.0
  0
LINE
  5
3C2
330
394
100
AcDbEntity
  8
実線
100
AcDbLine
 10
24.91791847198289
 20
41.0438239585215
 30
0.0
 11
25.33190018116179
 21
41.42324446224944
 31
0.0
  0
LINE
  5
3C3
330
394
100
AcDbEntity
  8
実線
100
AcDbLine
 10
24.51791847198291
 20
41.0438239585215
 30
0.0
 11
24.10393676280398
 21
41.42324446224941
 31
0.0
  0
ARC
  5
3C4
330
394
100
AcDbEntity
  8
実線
100
AcDbCircle
 10
24.7179184719829
 20
41.5020815280171
 30
0.0
 40
0.5
100
AcDbArc
 50
246.4218215217994
 51
293.5781784782005
  0
ARC
  5
3C5
330
394
100
AcDbEntity
  8
実線
100
AcDbCircle
 10
23.90123758539633
 20
41.20208152801706
 30
0.0
 40
0.3
100
AcDbArc
 50
47.49427098777609
 51
90.0
  0
LINE
  5
3C6
330
394
100
AcDbEntity
  8
実線
100
AcDbLine
 10
21.91791847198289
 20
41.0438239585215
 30
0.0
 11
22.33190018116179
 21
41.42324446224944
 31
0.0
  0
ARC
  5
3C7
330
394
100
AcDbEntity
  8
実線
100
AcDbCircle
 10
22.53459935856944
 20
41.20208152801708
 30
0.0
 40
0.3
100
AcDbArc
 50
90.0
 51
132.5057290122239
  0
ARC
  5
3C8
330
394
100
AcDbEntity
  8
実線
100
AcDbCircle
 10
21.7179184719829
 20
41.5020815280171
 30
0.0
 40
0.5
100
AcDbArc
 50
246.4218215217994
 51
293.5781784782005
  0
LINE
  5
3C9
330
394
100
AcDbEntity
  8
実線
100
AcDbLine
 10
23.90123758539633
 20
41.50208152801707
 30
0.0
 11
22.53459935856944
 21
41.5020815280171
 31
0.0
  0
LINE
  5
3CA
330
394
100
AcDbEntity
  8
実線
100
AcDbLine
 10
27.91791847198289
 20
41.0438239585215
 30
0.0
 11
28.33190018116179
 21
41.42324446224944
 31
0.0
  0
ARC
  5
3CB
330
394
100
AcDbEntity
  8
実線
100
AcDbCircle
 10
28.53459935856944
 20
41.20208152801708
 30
0.0
 40
0.3
100
AcDbArc
 50
90.0
 51
132.5057290122239
  0
LINE
  5
3CC
330
394
100
AcDbEntity
  8
実線
100
AcDbLine
 10
27.51791847198291
 20
41.0438239585215
 30
0.0
 11
27.10393676280399
 21
41.42324446224941
 31
0.0
  0
ARC
  5
3CD
330
394
100
AcDbEntity
  8
実線
100
AcDbCircle
 10
26.90123758539633
 20
41.20208152801706
 30
0.0
 40
0.3
100
AcDbArc
 50
47.49427098777609
 51
90.0
  0
ARC
  5
3CE
330
394
100
AcDbEntity
  8
実線
100
AcDbCircle
 10
27.7179184719829
 20
41.5020815280171
 30
0.0
 40
0.5
100
AcDbArc
 50
246.4218215217994
 51
293.5781784782005
  0
ARC
  5
3CF
330
394
100
AcDbEntity
  8
実線
100
AcDbCircle
 10
25.53459935856944
 20
41.20208152801708
 30
0.0
 40
0.3
100
AcDbArc
 50
90.0
 51
132.5057290122239
  0
LINE
  5
3D0
330
394
100
AcDbEntity
  8
実線
100
AcDbLine
 10
26.90123758539633
 20
41.50208152801707
 30
0.0
 11
25.53459935856944
 21
41.5020815280171
 31
0.0
  0
LINE
  5
3D1
330
394
100
AcDbEntity
  8
実線
100
AcDbLine
 10
33.51791847198291
 20
41.0438239585215
 30
0.0
 11
33.10393676280398
 21
41.42324446224941
 31
0.0
  0
LINE
  5
3D2
330
394
100
AcDbEntity
  8
実線
100
AcDbLine
 10
30.91791847198289
 20
41.0438239585215
 30
0.0
 11
31.33190018116179
 21
41.42324446224944
 31
0.0
  0
ARC
  5
3D3
330
394
100
AcDbEntity
  8
実線
100
AcDbCircle
 10
31.53459935856944
 20
41.20208152801708
 30
0.0
 40
0.3
100
AcDbArc
 50
90.0
 51
132.5057290122239
  0
ARC
  5
3D4
330
394
100
AcDbEntity
  8
実線
100
AcDbCircle
 10
32.90123758539633
 20
41.20208152801706
 30
0.0
 40
0.3
100
AcDbArc
 50
47.49427098777609
 51
90.0
  0
LINE
  5
3D5
330
394
100
AcDbEntity
  8
実線
100
AcDbLine
 10
32.90123758539633
 20
41.50208152801707
 30
0.0
 11
31.53459935856944
 21
41.5020815280171
 31
0.0
  0
LINE
  5
3D6
330
394
100
AcDbEntity
  8
実線
100
AcDbLine
 10
30.51791847198291
 20
41.0438239585215
 30
0.0
 11
30.10393676280398
 21
41.42324446224941
 31
0.0
  0
ARC
  5
3D7
330
394
100
AcDbEntity
  8
実線
100
AcDbCircle
 10
29.90123758539633
 20
41.20208152801706
 30
0.0
 40
0.3
100
AcDbArc
 50
47.49427098777609
 51
90.0
  0
ARC
  5
3D8
330
394
100
AcDbEntity
  8
実線
100
AcDbCircle
 10
30.7179184719829
 20
41.5020815280171
 30
0.0
 40
0.5
100
AcDbArc
 50
246.4218215217994
 51
293.5781784782005
  0
LINE
  5
3D9
330
394
100
AcDbEntity
  8
実線
100
AcDbLine
 10
36.91791847198289
 20
41.0438239585215
 30
0.0
 11
37.33190018116179
 21
41.42324446224944
 31
0.0
  0
ARC
  5
3DA
330
394
100
AcDbEntity
  8
実線
100
AcDbCircle
 10
37.53459935856944
 20
41.20208152801708
 30
0.0
 40
0.3
100
AcDbArc
 50
90.0
 51
132.5057290122239
  0
LINE
  5
3DB
330
394
100
AcDbEntity
  8
実線
100
AcDbLine
 10
36.51791847198291
 20
41.0438239585215
 30
0.0
 11
36.10393676280398
 21
41.42324446224941
 31
0.0
  0
ARC
  5
3DC
330
394
100
AcDbEntity
  8
実線
100
AcDbCircle
 10
35.90123758539633
 20
41.20208152801706
 30
0.0
 40
0.3
100
AcDbArc
 50
47.49427098777609
 51
90.0
  0
ARC
  5
3DD
330
394
100
AcDbEntity
  8
実線
100
AcDbCircle
 10
36.7179184719829
 20
41.5020815280171
 30
0.0
 40
0.5
100
AcDbArc
 50
246.4218215217994
 51
293.5781784782005
  0
LINE
  5
3DE
330
394
100
AcDbEntity
  8
実線
100
AcDbLine
 10
33.91791847198289
 20
41.0438239585215
 30
0.0
 11
34.33190018116178
 21
41.42324446224944
 31
0.0
  0
ARC
  5
3DF
330
394
100
AcDbEntity
  8
実線
100
AcDbCircle
 10
34.53459935856944
 20
41.20208152801708
 30
0.0
 40
0.3
100
AcDbArc
 50
90.0
 51
132.5057290122239
  0
ARC
  5
3E0
330
394
100
AcDbEntity
  8
実線
100
AcDbCircle
 10
33.7179184719829
 20
41.5020815280171
 30
0.0
 40
0.5
100
AcDbArc
 50
246.4218215217994
 51
293.5781784782005
  0
LINE
  5
3E1
330
394
100
AcDbEntity
  8
実線
100
AcDbLine
 10
35.90123758539633
 20
41.50208152801707
 30
0.0
 11
34.53459935856944
 21
41.5020815280171
 31
0.0
  0
LINE
  5
3E2
330
394
100
AcDbEntity
  8
実線
100
AcDbLine
 10
50.27830322971164
 20
46.20208152801708
 30
0.0
 11
42.91987660947995
 21
46.20208152801711
 31
0.0
  0
LINE
  5
3E3
330
394
100
AcDbEntity
  8
実線
100
AcDbLine
 10
43.40165001784206
 20
44.41698617091526
 30
0.0
 11
39.95967464867846
 21
41.06441275939227
 31
0.0
  0
LINE
  5
3E4
330
394
100
AcDbEntity
  8
実線
100
AcDbLine
 10
42.71055390535832
 20
46.11698617091531
 30
0.0
 11
39.8052830386074
 21
43.28717688511886
 31
0.0
  0
ARC
  5
3E5
330
394
100
AcDbEntity
  8
実線
100
AcDbCircle
 10
39.59596033448577
 20
43.50208152801707
 30
0.0
 40
0.3
100
AcDbArc
 50
270.0
 51
314.2461516669302
  0
LINE
  5
3E6
330
394
100
AcDbEntity
  8
実線
100
AcDbLine
 10
39.51791847198291
 20
41.0438239585215
 30
0.0
 11
39.10393676280398
 21
41.42324446224941
 31
0.0
  0
ARC
  5
3E7
330
394
100
AcDbEntity
  8
実線
100
AcDbCircle
 10
39.7179184719829
 20
41.5020815280171
 30
0.0
 40
0.5
100
AcDbArc
 50
246.4218215217922
 51
322.3349536618381
  0
ARC
  5
3E8
330
394
100
AcDbEntity
  8
実線
100
AcDbCircle
 10
38.90123758539633
 20
41.20208152801706
 30
0.0
 40
0.3
100
AcDbArc
 50
47.49427098777609
 51
90.0
  0
ARC
  5
3E9
330
394
100
AcDbEntity
  8
実線
100
AcDbCircle
 10
43.61097272196369
 20
44.20208152801706
 30
0.0
 40
0.3
100
AcDbArc
 50
90.0
 51
134.2461516669291
  0
ARC
  5
3EA
330
394
100
AcDbEntity
  8
実線
100
AcDbCircle
 10
42.91987660947995
 20
45.9020815280171
 30
0.0
 40
0.3
100
AcDbArc
 50
90.0
 51
134.2461516669291
  0
ARC
  5
3EB
330
394
100
AcDbEntity
  8
実線
100
AcDbCircle
 10
51.31753371425407
 20
45.90208152801707
 30
0.0
 40
0.3
100
AcDbArc
 50
90.0
 51
150.0000000000265
  0
ARC
  5
3EC
330
394
100
AcDbEntity
  8
実線
100
AcDbCircle
 10
50.27830322971164
 20
45.90208152801707
 30
0.0
 40
0.3
100
AcDbArc
 50
29.99999999997347
 51
90.0
  0
ARC
  5
3ED
330
394
100
AcDbEntity
  8
実線
100
AcDbCircle
 10
50.79791847198285
 20
46.20208152801708
 30
0.0
 40
0.3
100
AcDbArc
 50
209.9999999999757
 51
330.0000000000243
  0
LINE
  5
3EE
330
394
100
AcDbEntity
  8
実線
100
AcDbLine
 10
61.43843095577818
 20
43.20208152801709
 30
0.0
 11
66.49791847198287
 21
43.20208152801706
 31
0.0
  0
LINE
  5
3EF
330
394
100
AcDbEntity
  8
実線
100
AcDbLine
 10
61.05886021427128
 20
41.0020815280171
 30
0.0
 11
64.29791847198291
 21
41.0020815280171
 31
0.0
  0
LINE
  5
3F0
330
394
100
AcDbEntity
  8
実線
100
AcDbLine
 10
58.0916349638932
 20
44.39413684791648
 30
0.0
 11
60.82839383039206
 21
41.11002620811777
 31
0.0
  0
LINE
  5
3F1
330
394
100
AcDbEntity
  8
実線
100
AcDbLine
 10
58.88787237206679
 20
46.09413684791644
 30
0.0
 11
61.20796457189896
 21
43.31002620811776
 31
0.0
  0
ARC
  5
3F2
330
394
100
AcDbEntity
  8
実線
100
AcDbCircle
 10
61.43843095577818
 20
43.5020815280171
 30
0.0
 40
0.3
100
AcDbArc
 50
219.8055710922642
 51
270.0
  0
ARC
  5
3F3
330
394
100
AcDbEntity
  8
実線
100
AcDbCircle
 10
61.05886021427128
 20
41.30208152801711
 30
0.0
 40
0.3
100
AcDbArc
 50
219.8055710922654
 51
270.0
  0
ARC
  5
3F4
330
394
100
AcDbEntity
  8
実線
100
AcDbCircle
 10
57.86116858001398
 20
44.20208152801714
 30
0.0
 40
0.3
100
AcDbArc
 50
39.8055710922654
 51
90.0
  0
ARC
  5
3F5
330
394
100
AcDbEntity
  8
実線
100
AcDbCircle
 10
58.65740598818757
 20
45.9020815280171
 30
0.0
 40
0.3
100
AcDbArc
 50
39.8055710922654
 51
90.0
  0
LINE
  5
3F6
330
394
100
AcDbEntity
  8
実線
100
AcDbLine
 10
64.89791847198296
 20
42.00208152801709
 30
0.0
 11
66.49791847198284
 21
42.00208152801709
 31
0.0
  0
LINE
  5
3F7
330
394
100
AcDbEntity
  8
実線
100
AcDbLine
 10
64.59791847198292
 20
41.30208152801711
 30
0.0
 11
64.59791847198295
 21
41.70208152801708
 31
0.0
  0
ARC
  5
3F8
330
394
100
AcDbEntity
  8
実線
100
AcDbCircle
 10
64.29791847198291
 20
41.30208152801711
 30
0.0
 40
0.3
100
AcDbArc
 50
270.0
 51
0.0
  0
ARC
  5
3F9
330
394
100
AcDbEntity
  8
実線
100
AcDbCircle
 10
64.89791847198296
 20
41.70208152801708
 30
0.0
 40
0.3
100
AcDbArc
 50
90.0
 51
180.0
  0
LINE
  5
3FA
330
394
100
AcDbEntity
  8
実線
100
AcDbLine
 10
66.79791847198285
 20
42.30208152801711
 30
0.0
 11
66.79791847198288
 21
42.90208152801702
 31
0.0
  0
ARC
  5
3FB
330
394
100
AcDbEntity
  8
実線
100
AcDbCircle
 10
66.49791847198284
 20
42.30208152801711
 30
0.0
 40
0.3
100
AcDbArc
 50
270.0
 51
0.0
  0
ARC
  5
3FC
330
394
100
AcDbEntity
  8
実線
100
AcDbCircle
 10
66.49791847198287
 20
42.90208152801705
 30
0.0
 40
0.3
100
AcDbArc
 50
359.9999999999968
 51
90.0
  0
ENDBLK
  5
3FE
330
394
100
AcDbEntity
  8
0
100
AcDbBlockEnd
  0
BLOCK
  5
415
330
40F
100
AcDbEntity
  8
0
100
AcDbBlockBegin
  2
A$C68CD0280
 70
     0
 10
0.0
 20
0.0
 30
0.0
  3
A$C68CD0280
  1

  0
ARC
  5
410
330
40F
100
AcDbEntity
  8
寸法線
100
AcDbCircle
 10
0.5485281374238582
 20
0.0
 30
0.0
 40
0.3
100
AcDbArc
 50
90.0
 51
135.0
  0
ARC
  5
411
330
40F
100
AcDbEntity
  8
寸法線
100
AcDbCircle
 10
-0.5485281374239435
 20
0.0
 30
0.0
 40
0.3
100
AcDbArc
 50
45.0
 51
90.0
  0
LINE
  5
412
330
40F
100
AcDbEntity
  8
寸法線
100
AcDbLine
 10
0.2121320343559603
 20
0.0878679656440511
 30
0.0
 11
0.3363961030678979
 21
0.2121320343559603
 31
0.0
  0
LINE
  5
413
330
40F
100
AcDbEntity
  8
寸法線
100
AcDbLine
 10
-0.2121320343559603
 20
0.0878679656440511
 30
0.0
 11
-0.3363961030679832
 21
0.2121320343559603
 31
0.0
  0
ARC
  5
414
330
40F
100
AcDbEntity
  8
寸法線
100
AcDbCircle
 10
0.0
 20
0.3000000000000114
 30
0.0
 40
0.3
100
AcDbArc
 50
225.0
 51
315.0
  0
ENDBLK
  5
416
330
40F
100
AcDbEntity
  8
0
100
AcDbBlockEnd
  0
BLOCK
  5
7A8
330
7A7
100
AcDbEntity
  8
0
100
AcDbBlockBegin
  2
*D24
 70
     1
 10
0.0
 20
0.0
 30
0.0
  3
*D24
  1

  0
LINE
  5
7AA
330
7A7
100
AcDbEntity
  8
寸法線
 62
     0
440
 16777216
370
    -2
100
AcDbLine
 10
21.24861793411094
 20
61.81877666954665
 30
0.0
 11
21.24861793411094
 21
79.44948713249633
 31
0.0
  0
LINE
  5
7AB
330
7A7
100
AcDbEntity
  8
寸法線
 62
     0
440
 16777216
370
    -2
100
AcDbLine
 10
53.99861793411094
 20
64.01877666954665
 30
0.0
 11
53.99861793411094
 21
79.44948713249633
 31
0.0
  0
LINE
  5
7AC
330
7A7
100
AcDbEntity
  8
寸法線
 62
     0
440
 16777216
370
    -2
100
AcDbLine
 10
21.24861793411094
 20
78.19948713249633
 30
0.0
 11
53.99861793411094
 21
78.19948713249633
 31
0.0
  0
INSERT
  5
7AD
330
7A7
100
AcDbEntity
  8
寸法線
 62
     0
440
 16777216
370
    -2
100
AcDbBlockReference
  2
_DotSmall
 10
21.24861793411094
 20
78.19948713249633
 30
0.0
 50
180.0
  0
INSERT
  5
7AE
330
7A7
100
AcDbEntity
  8
寸法線
 62
     0
440
 16777216
370
    -2
100
AcDbBlockReference
  2
_DotSmall
 10
53.99861793411094
 20
78.19948713249633
 30
0.0
  0
MTEXT
  5
7AF
330
7A7
100
AcDbEntity
  8
寸法線
 62
     0
440
 16777216
100
AcDbMText
 10
37.62361793411094
 20
79.74948713249633
 30
0.0
 40
2.5
 41
0.0
 46
0.0
 71
     5
 72
     1
  1
32.75
 73
     1
 44
1.0
  0
POINT
  5
7B0
330
7A7
100
AcDbEntity
  8
Defpoints
 62
     0
440
 16777216
100
AcDbPoint
 10
21.24861793411094
 20
61.19377666954665
 30
0.0
  0
POINT
  5
7B1
330
7A7
100
AcDbEntity
  8
Defpoints
 62
     0
440
 16777216
100
AcDbPoint
 10
53.99861793411094
 20
63.39377666954665
 30
0.0
  0
POINT
  5
7B2
330
7A7
100
AcDbEntity
  8
Defpoints
 62
     0
440
 16777216
100
AcDbPoint
 10
53.99861793411094
 20
78.19948713249633
 30
0.0
  0
ENDBLK
  5
7A9
330
7A7
100
AcDbEntity
  8
0
100
AcDbBlockEnd
  0
BLOCK
  5
7D3
330
7D2
100
AcDbEntity
  8
0
100
AcDbBlockBegin
  2
*D27
 70
     1
 10
0.0
 20
0.0
 30
0.0
  3
*D27
  1

  0
LINE
  5
7DE
330
7D2
100
AcDbEntity
  8
寸法線
 62
     0
440
 16777216
370
    -2
100
AcDbLine
 10
109.7486179341109
 20
61.31877666954665
 30
0.0
 11
109.7486179341109
 21
94.74348293479824
 31
0.0
  0
LINE
  5
7DF
330
7D2
100
AcDbEntity
  8
寸法線
 62
     0
440
 16777216
370
    -2
100
AcDbLine
 10
21.24861793411094
 20
61.81877666954665
 30
0.0
 11
21.24861793411094
 21
94.74348293479824
 31
0.0
  0
LINE
  5
7E0
330
7D2
100
AcDbEntity
  8
寸法線
 62
     0
440
 16777216
370
    -2
100
AcDbLine
 10
109.7486179341109
 20
93.49348293479824
 30
0.0
 11
21.24861793411094
 21
93.49348293479824
 31
0.0
  0
INSERT
  5
7E1
330
7D2
100
AcDbEntity
  8
寸法線
 62
     0
440
 16777216
370
    -2
100
AcDbBlockReference
  2
_DotSmall
 10
109.7486179341109
 20
93.49348293479824
 30
0.0
  0
INSERT
  5
7E2
330
7D2
100
AcDbEntity
  8
寸法線
 62
     0
440
 16777216
370
    -2
100
AcDbBlockReference
  2
_DotSmall
 10
21.24861793411094
 20
93.49348293479824
 30
0.0
 50
180.0
  0
MTEXT
  5
7E3
330
7D2
100
AcDbEntity
  8
寸法線
 62
     0
440
 16777216
100
AcDbMText
 10
65.49861793411094
 20
95.04348293479823
 30
0.0
 40
2.5
 41
0.0
 46
0.0
 71
     5
 72
     1
  1
88.5
 73
     1
 44
1.0
  0
POINT
  5
7E4
330
7D2
100
AcDbEntity
  8
Defpoints
 62
     0
440
 16777216
100
AcDbPoint
 10
109.7486179341109
 20
60.69377666954665
 30
0.0
  0
POINT
  5
7E5
330
7D2
100
AcDbEntity
  8
Defpoints
 62
     0
440
 16777216
100
AcDbPoint
 10
21.24861793411094
 20
61.19377666954665
 30
0.0
  0
POINT
  5
7E6
330
7D2
100
AcDbEntity
  8
Defpoints
 62
     0
440
 16777216
100
AcDbPoint
 10
21.24861793411094
 20
93.49348293479824
 30
0.0
  0
ENDBLK
  5
7D4
330
7D2
100
AcDbEntity
  8
0
100
AcDbBlockEnd
  0
BLOCK
  5
7E9
330
7E8
100
AcDbEntity
  8
0
100
AcDbBlockBegin
  2
*D28
 70
     1
 10
0.0
 20
0.0
 30
0.0
  3
*D28
  1

  0
LINE
  5
7EB
330
7E8
100
AcDbEntity
  8
寸法線
 62
     0
440
 16777216
370
    -2
100
AcDbLine
 10
20.62361793411094
 20
61.19377666954665
 30
0.0
 11
5.003925696855023
 21
61.19377666954665
 31
0.0
  0
LINE
  5
7EC
330
7E8
100
AcDbEntity
  8
寸法線
 62
     0
440
 16777216
370
    -2
100
AcDbLine
 10
20.62361793411094
 20
55.69377666954665
 30
0.0
 11
5.003925696855022
 21
55.69377666954665
 31
0.0
  0
LINE
  5
7ED
330
7E8
100
AcDbEntity
  8
寸法線
 62
     0
440
 16777216
370
    -2
100
AcDbLine
 10
6.253925696855023
 20
61.19377666954665
 30
0.0
 11
6.253925696855022
 21
55.69377666954665
 31
0.0
  0
LINE
  5
7EE
330
7E8
100
AcDbEntity
  8
寸法線
 62
     0
440
 16777216
370
    -2
100
AcDbLine
 10
6.253925696855022
 20
55.69377666954665
 30
0.0
 11
6.25392569685502
 21
49.09377666954664
 31
0.0
  0
INSERT
  5
7EF
330
7E8
100
AcDbEntity
  8
寸法線
 62
     0
440
 16777216
370
    -2
100
AcDbBlockReference
  2
_DotSmall
 10
6.253925696855023
 20
61.19377666954665
 30
0.0
 50
90.0
  0
INSERT
  5
7F0
330
7E8
100
AcDbEntity
  8
寸法線
 62
     0
440
 16777216
370
    -2
100
AcDbBlockReference
  2
_DotSmall
 10
6.253925696855022
 20
55.69377666954665
 30
0.0
 50
270.0
  0
MTEXT
  5
7F1
330
7E8
100
AcDbEntity
  8
寸法線
 62
     0
440
 16777216
100
AcDbMText
 10
4.703925696855013
 20
51.89377666954666
 30
0.0
 40
2.5
 41
0.0
 46
0.0
 71
     5
 72
     1
  1
5.5
 11
0.0000000000000001
 21
1.0
 31
0.0
 73
     1
 44
1.0
  0
POINT
  5
7F2
330
7E8
100
AcDbEntity
  8
Defpoints
 62
     0
440
 16777216
100
AcDbPoint
 10
21.24861793411094
 20
61.19377666954665
 30
0.0
  0
POINT
  5
7F3
330
7E8
100
AcDbEntity
  8
Defpoints
 62
     0
440
 16777216
100
AcDbPoint
 10
21.24861793411094
 20
55.69377666954665
 30
0.0
  0
POINT
  5
7F4
330
7E8
100
AcDbEntity
  8
Defpoints
 62
     0
440
 16777216
100
AcDbPoint
 10
6.253925696855022
 20
55.69377666954665
 30
0.0
  0
ENDBLK
  5
7EA
330
7E8
100
AcDbEntity
  8
0
100
AcDbBlockEnd
  0
BLOCK
  5
7F7
330
7F6
100
AcDbEntity
  8
0
100
AcDbBlockBegin
  2
*D29
 70
     1
 10
0.0
 20
0.0
 30
0.0
  3
*D29
  1

  0
LINE
  5
7F9
330
7F6
100
AcDbEntity
  8
寸法線
 62
     0
440
 16777216
370
    -2
100
AcDbLine
 10
20.62361793411094
 20
61.19377666954665
 30
0.0
 11
5.003925696855023
 21
61.19377666954665
 31
0.0
  0
LINE
  5
7FA
330
7F6
100
AcDbEntity
  8
寸法線
 62
     0
440
 16777216
370
    -2
100
AcDbLine
 10
44.5022975905513
 20
63.69377666954665
 30
0.0
 11
5.003925696855027
 21
63.69377666954665
 31
0.0
  0
LINE
  5
7FB
330
7F6
100
AcDbEntity
  8
寸法線
 62
     0
440
 16777216
370
    -2
100
AcDbLine
 10
6.253925696855023
 20
61.19377666954665
 30
0.0
 11
6.253925696855024
 21
63.69377666954665
 31
0.0
  0
LINE
  5
7FC
330
7F6
100
AcDbEntity
  8
寸法線
 62
     0
440
 16777216
370
    -2
100
AcDbLine
 10
6.253925696855024
 20
62.44377666954665
 30
0.0
 11
3.303925696855023
 21
63.32877666954665
 31
0.0
  0
LINE
  5
7FD
330
7F6
100
AcDbEntity
  8
寸法線
 62
     0
440
 16777216
370
    -2
100
AcDbLine
 10
3.303925696855023
 20
63.32877666954665
 30
0.0
 11
3.303925696855024
 21
68.92877666954665
 31
0.0
  0
MTEXT
  5
7FE
330
7F6
100
AcDbEntity
  8
寸法線
 62
     0
440
 16777216
100
AcDbMText
 10
1.753925696855013
 20
66.12877666954665
 30
0.0
 40
2.5
 41
0.0
 46
0.0
 71
     5
 72
     1
  1
2.5
 11
0.0000000000000001
 21
1.0
 31
0.0
 73
     1
 44
1.0
  0
INSERT
  5
7FF
330
7F6
100
AcDbEntity
  8
寸法線
 62
     0
440
 16777216
370
    -2
100
AcDbBlockReference
  2
_DotSmall
 10
6.253925696855023
 20
61.19377666954665
 30
0.0
 50
270.0
  0
INSERT
  5
800
330
7F6
100
AcDbEntity
  8
寸法線
 62
     0
440
 16777216
370
    -2
100
AcDbBlockReference
  2
_DotSmall
 10
6.253925696855024
 20
63.69377666954665
 30
0.0
 50
90.0
  0
POINT
  5
801
330
7F6
100
AcDbEntity
  8
Defpoints
 62
     0
440
 16777216
100
AcDbPoint
 10
21.24861793411094
 20
61.19377666954665
 30
0.0
  0
POINT
  5
802
330
7F6
100
AcDbEntity
  8
Defpoints
 62
     0
440
 16777216
100
AcDbPoint
 10
45.1272975905513
 20
63.69377666954665
 30
0.0
  0
POINT
  5
803
330
7F6
100
AcDbEntity
  8
Defpoints
 62
     0
440
 16777216
100
AcDbPoint
 10
6.253925696855024
 20
63.69377666954665
 30
0.0
  0
ENDBLK
  5
7F8
330
7F6
100
AcDbEntity
  8
0
100
AcDbBlockEnd
  0
BLOCK
  5
806
330
805
100
AcDbEntity
  8
0
100
AcDbBlockBegin
  2
*D30
 70
     1
 10
0.0
 20
0.0
 30
0.0
  3
*D30
  1

  0
LINE
  5
808
330
805
100
AcDbEntity
  8
寸法線
 62
     0
440
 16777216
370
    -2
100
AcDbLine
 10
21.24861793411094
 20
55.06877666954665
 30
0.0
 11
21.24861793411094
 21
39.49079596861692
 31
0.0
  0
LINE
  5
809
330
805
100
AcDbEntity
  8
寸法線
 62
     0
440
 16777216
370
    -2
100
AcDbLine
 10
24.74861793411094
 20
55.06877666954665
 30
0.0
 11
24.74861793411094
 21
39.49079596861692
 31
0.0
  0
LINE
  5
80A
330
805
100
AcDbEntity
  8
寸法線
 62
     0
440
 16777216
370
    -2
100
AcDbLine
 10
21.24861793411094
 20
40.74079596861691
 30
0.0
 11
24.74861793411094
 21
40.74079596861691
 31
0.0
  0
LINE
  5
80B
330
805
100
AcDbEntity
  8
寸法線
 62
     0
440
 16777216
370
    -2
100
AcDbLine
 10
24.74861793411094
 20
40.74079596861691
 30
0.0
 11
31.34861793411094
 21
40.74079596861691
 31
0.0
  0
INSERT
  5
80C
330
805
100
AcDbEntity
  8
寸法線
 62
     0
440
 16777216
370
    -2
100
AcDbBlockReference
  2
_DotSmall
 10
21.24861793411094
 20
40.74079596861691
 30
0.0
 50
180.0
  0
INSERT
  5
80D
330
805
100
AcDbEntity
  8
寸法線
 62
     0
440
 16777216
370
    -2
100
AcDbBlockReference
  2
_DotSmall
 10
24.74861793411094
 20
40.74079596861691
 30
0.0
  0
MTEXT
  5
80E
330
805
100
AcDbEntity
  8
寸法線
 62
     0
440
 16777216
100
AcDbMText
 10
28.54861793411094
 20
42.29079596861691
 30
0.0
 40
2.5
 41
0.0
 46
0.0
 71
     5
 72
     1
  1
3.5
 73
     1
 44
1.0
  0
POINT
  5
80F
330
805
100
AcDbEntity
  8
Defpoints
 62
     0
440
 16777216
100
AcDbPoint
 10
21.24861793411094
 20
55.69377666954665
 30
0.0
  0
POINT
  5
810
330
805
100
AcDbEntity
  8
Defpoints
 62
     0
440
 16777216
100
AcDbPoint
 10
24.74861793411094
 20
55.69377666954665
 30
0.0
  0
POINT
  5
811
330
805
100
AcDbEntity
  8
Defpoints
 62
     0
440
 16777216
100
AcDbPoint
 10
24.74861793411094
 20
40.74079596861691
 30
0.0
  0
ENDBLK
  5
807
330
805
100
AcDbEntity
  8
0
100
AcDbBlockEnd
  0
BLOCK
  5
814
330
813
100
AcDbEntity
  8
0
100
AcDbBlockBegin
  2
*D31
 70
     1
 10
0.0
 20
0.0
 30
0.0
  3
*D31
  1

  0
LINE
  5
816
330
813
100
AcDbEntity
  8
寸法線
 62
     0
440
 16777216
370
    -2
100
AcDbLine
 10
45.74861793411094
 20
61.56877666954665
 30
0.0
 11
45.74861793411094
 21
46.0919693461853
 31
0.0
  0
LINE
  5
817
330
813
100
AcDbEntity
  8
寸法線
 62
     0
440
 16777216
370
    -2
100
AcDbLine
 10
62.24861793411093
 20
61.56877666954665
 30
0.0
 11
62.24861793411093
 21
46.0919693461853
 31
0.0
  0
LINE
  5
818
330
813
100
AcDbEntity
  8
寸法線
 62
     0
440
 16777216
370
    -2
100
AcDbLine
 10
45.74861793411094
 20
47.3419693461853
 30
0.0
 11
62.24861793411093
 21
47.3419693461853
 31
0.0
  0
INSERT
  5
819
330
813
100
AcDbEntity
  8
寸法線
 62
     0
440
 16777216
370
    -2
100
AcDbBlockReference
  2
_DotSmall
 10
45.74861793411094
 20
47.3419693461853
 30
0.0
 50
180.0
  0
INSERT
  5
81A
330
813
100
AcDbEntity
  8
寸法線
 62
     0
440
 16777216
370
    -2
100
AcDbBlockReference
  2
_DotSmall
 10
62.24861793411093
 20
47.3419693461853
 30
0.0
  0
MTEXT
  5
81B
330
813
100
AcDbEntity
  8
寸法線
 62
     0
440
 16777216
100
AcDbMText
 10
53.99861793411094
 20
48.89196934618531
 30
0.0
 40
2.5
 41
0.0
 46
0.0
 71
     5
 72
     1
  1
16.5
 73
     1
 44
1.0
  0
POINT
  5
81C
330
813
100
AcDbEntity
  8
Defpoints
 62
     0
440
 16777216
100
AcDbPoint
 10
45.74861793411094
 20
62.19377666954665
 30
0.0
  0
POINT
  5
81D
330
813
100
AcDbEntity
  8
Defpoints
 62
     0
440
 16777216
100
AcDbPoint
 10
62.24861793411093
 20
62.19377666954665
 30
0.0
  0
POINT
  5
81E
330
813
100
AcDbEntity
  8
Defpoints
 62
     0
440
 16777216
100
AcDbPoint
 10
62.24861793411093
 20
47.3419693461853
 30
0.0
  0
ENDBLK
  5
815
330
813
100
AcDbEntity
  8
0
100
AcDbBlockEnd
  0
BLOCK
  5
821
330
820
100
AcDbEntity
  8
0
100
AcDbBlockBegin
  2
*D32
 70
     1
 10
0.0
 20
0.0
 30
0.0
  3
*D32
  1

  0
LINE
  5
823
330
820
100
AcDbEntity
  8
寸法線
 62
     0
440
 16777216
370
    -2
100
AcDbLine
 10
43.24861793411093
 20
59.06877666954666
 30
0.0
 11
43.24861793411093
 21
42.95041894329643
 31
0.0
  0
LINE
  5
824
330
820
100
AcDbEntity
  8
寸法線
 62
     0
440
 16777216
370
    -2
100
AcDbLine
 10
65.24861793411094
 20
58.56877666954666
 30
0.0
 11
65.24861793411094
 21
42.95041894329643
 31
0.0
  0
LINE
  5
825
330
820
100
AcDbEntity
  8
寸法線
 62
     0
440
 16777216
370
    -2
100
AcDbLine
 10
43.24861793411093
 20
44.20041894329643
 30
0.0
 11
65.24861793411094
 21
44.20041894329643
 31
0.0
  0
INSERT
  5
826
330
820
100
AcDbEntity
  8
寸法線
 62
     0
440
 16777216
370
    -2
100
AcDbBlockReference
  2
_DotSmall
 10
43.24861793411093
 20
44.20041894329643
 30
0.0
 50
180.0
  0
INSERT
  5
827
330
820
100
AcDbEntity
  8
寸法線
 62
     0
440
 16777216
370
    -2
100
AcDbBlockReference
  2
_DotSmall
 10
65.24861793411094
 20
44.20041894329643
 30
0.0
  0
MTEXT
  5
828
330
820
100
AcDbEntity
  8
寸法線
 62
     0
440
 16777216
100
AcDbMText
 10
54.24861793411094
 20
45.75041894329642
 30
0.0
 40
2.5
 41
0.0
 46
0.0
 71
     5
 72
     1
  1
22
 73
     1
 44
1.0
  0
POINT
  5
829
330
820
100
AcDbEntity
  8
Defpoints
 62
     0
440
 16777216
100
AcDbPoint
 10
43.24861793411093
 20
59.69377666954666
 30
0.0
  0
POINT
  5
82A
330
820
100
AcDbEntity
  8
Defpoints
 62
     0
440
 16777216
100
AcDbPoint
 10
65.24861793411094
 20
59.19377666954666
 30
0.0
  0
POINT
  5
82B
330
820
100
AcDbEntity
  8
Defpoints
 62
     0
440
 16777216
100
AcDbPoint
 10
65.24861793411094
 20
44.20041894329643
 30
0.0
  0
ENDBLK
  5
822
330
820
100
AcDbEntity
  8
0
100
AcDbBlockEnd
  0
BLOCK
  5
84B
330
84A
100
AcDbEntity
  8
0
100
AcDbBlockBegin
  2
*D35
 70
     1
 10
0.0
 20
0.0
 30
0.0
  3
*D35
  1

  0
LINE
  5
891
330
84A
100
AcDbEntity
  8
寸法線
 62
     0
440
 16777216
370
    -2
100
AcDbLine
 10
109.7486179341109
 20
61.31877666954665
 30
0.0
 11
109.7486179341109
 21
94.74348293479824
 31
0.0
  0
LINE
  5
892
330
84A
100
AcDbEntity
  8
寸法線
 62
     0
440
 16777216
370
    -2
100
AcDbLine
 10
113.3386179341109
 20
15.35431057547939
 30
0.0
 11
113.3386179341109
 21
94.74348293479824
 31
0.0
  0
LINE
  5
893
330
84A
100
AcDbEntity
  8
寸法線
 62
     0
440
 16777216
370
    -2
100
AcDbLine
 10
109.7486179341109
 20
93.49348293479824
 30
0.0
 11
113.3386179341109
 21
93.49348293479824
 31
0.0
  0
LINE
  5
894
330
84A
100
AcDbEntity
  8
寸法線
 62
     0
440
 16777216
370
    -2
100
AcDbLine
 10
111.5436179341109
 20
93.49348293479824
 30
0.0
 11
112.4286179341109
 21
96.44348293479824
 31
0.0
  0
LINE
  5
895
330
84A
100
AcDbEntity
  8
寸法線
 62
     0
440
 16777216
370
    -2
100
AcDbLine
 10
112.4286179341109
 20
96.44348293479824
 30
0.0
 11
120.5286179341109
 21
96.44348293479824
 31
0.0
  0
MTEXT
  5
896
330
84A
100
AcDbEntity
  8
寸法線
 62
     0
440
 16777216
100
AcDbMText
 10
116.4786179341109
 20
97.99348293479823
 30
0.0
 40
2.5
 41
0.0
 46
0.0
 71
     5
 72
     1
  1
3.59
 73
     1
 44
1.0
  0
INSERT
  5
897
330
84A
100
AcDbEntity
  8
寸法線
 62
     0
440
 16777216
370
    -2
100
AcDbBlockReference
  2
_DotSmall
 10
109.7486179341109
 20
93.49348293479824
 30
0.0
 50
180.0
  0
INSERT
  5
898
330
84A
100
AcDbEntity
  8
寸法線
 62
     0
440
 16777216
370
    -2
100
AcDbBlockReference
  2
_DotSmall
 10
113.3386179341109
 20
93.49348293479824
 30
0.0
  0
POINT
  5
899
330
84A
100
AcDbEntity
  8
Defpoints
 62
     0
440
 16777216
100
AcDbPoint
 10
109.7486179341109
 20
60.69377666954665
 30
0.0
  0
POINT
  5
89A
330
84A
100
AcDbEntity
  8
Defpoints
 62
     0
440
 16777216
100
AcDbPoint
 10
113.3386179341109
 20
14.72931057547939
 30
0.0
  0
POINT
  5
89B
330
84A
100
AcDbEntity
  8
Defpoints
 62
     0
440
 16777216
100
AcDbPoint
 10
113.3386179341109
 20
93.49348293479824
 30
0.0
  0
ENDBLK
  5
84C
330
84A
100
AcDbEntity
  8
0
100
AcDbBlockEnd
  0
BLOCK
  5
85A
330
859
100
AcDbEntity
  8
0
100
AcDbBlockBegin
  2
*D36
 70
     1
 10
0.0
 20
0.0
 30
0.0
  3
*D36
  1

  0
LINE
  5
85C
330
859
100
AcDbEntity
  8
寸法線
 62
     0
440
 16777216
370
    -2
100
AcDbLine
 10
110.3736179341109
 20
60.69377666954665
 30
0.0
 11
125.9396823395719
 21
60.69377666954664
 31
0.0
  0
LINE
  5
85D
330
859
100
AcDbEntity
  8
寸法線
 62
     0
440
 16777216
370
    -2
100
AcDbLine
 10
110.4280840281782
 20
11.19377666954665
 30
0.0
 11
125.9396823395719
 21
11.19377666954664
 31
0.0
  0
LINE
  5
85E
330
859
100
AcDbEntity
  8
寸法線
 62
     0
440
 16777216
370
    -2
100
AcDbLine
 10
124.6896823395719
 20
60.69377666954664
 30
0.0
 11
124.6896823395719
 21
11.19377666954664
 31
0.0
  0
INSERT
  5
85F
330
859
100
AcDbEntity
  8
寸法線
 62
     0
440
 16777216
370
    -2
100
AcDbBlockReference
  2
_DotSmall
 10
124.6896823395719
 20
60.69377666954664
 30
0.0
 50
90.0
  0
INSERT
  5
860
330
859
100
AcDbEntity
  8
寸法線
 62
     0
440
 16777216
370
    -2
100
AcDbBlockReference
  2
_DotSmall
 10
124.6896823395719
 20
11.19377666954664
 30
0.0
 50
270.0
  0
MTEXT
  5
861
330
859
100
AcDbEntity
  8
寸法線
 62
     0
440
 16777216
100
AcDbMText
 10
123.1396823395719
 20
35.94377666954667
 30
0.0
 40
2.5
 41
0.0
 46
0.0
 71
     5
 72
     1
  1
49.5
 11
0.0000000000000001
 21
1.0
 31
0.0
 73
     1
 44
1.0
  0
POINT
  5
862
330
859
100
AcDbEntity
  8
Defpoints
 62
     0
440
 16777216
100
AcDbPoint
 10
109.7486179341109
 20
60.69377666954665
 30
0.0
  0
POINT
  5
863
330
859
100
AcDbEntity
  8
Defpoints
 62
     0
440
 16777216
100
AcDbPoint
 10
109.8030840281782
 20
11.19377666954665
 30
0.0
  0
POINT
  5
864
330
859
100
AcDbEntity
  8
Defpoints
 62
     0
440
 16777216
100
AcDbPoint
 10
124.6896823395719
 20
11.19377666954664
 30
0.0
  0
ENDBLK
  5
85B
330
859
100
AcDbEntity
  8
0
100
AcDbBlockEnd
  0
BLOCK
  5
867
330
866
100
AcDbEntity
  8
0
100
AcDbBlockBegin
  2
*D37
 70
     1
 10
0.0
 20
0.0
 30
0.0
  3
*D37
  1

  0
LINE
  5
869
330
866
100
AcDbEntity
  8
寸法線
 62
     0
440
 16777216
370
    -2
100
AcDbLine
 10
110.3736179341109
 20
60.69377666954665
 30
0.0
 11
125.9396823395719
 21
60.69377666954664
 31
0.0
  0
LINE
  5
86A
330
866
100
AcDbEntity
  8
寸法線
 62
     0
440
 16777216
370
    -2
100
AcDbLine
 10
63.4949382776706
 20
63.69377666954665
 30
0.0
 11
125.9396823395719
 21
63.69377666954663
 31
0.0
  0
LINE
  5
86B
330
866
100
AcDbEntity
  8
寸法線
 62
     0
440
 16777216
370
    -2
100
AcDbLine
 10
124.6896823395719
 20
60.69377666954664
 30
0.0
 11
124.6896823395719
 21
63.69377666954663
 31
0.0
  0
INSERT
  5
86C
330
866
100
AcDbEntity
  8
寸法線
 62
     0
440
 16777216
370
    -2
100
AcDbBlockReference
  2
_DotSmall
 10
124.6896823395719
 20
60.69377666954664
 30
0.0
 50
270.0
  0
INSERT
  5
86D
330
866
100
AcDbEntity
  8
寸法線
 62
     0
440
 16777216
370
    -2
100
AcDbBlockReference
  2
_DotSmall
 10
124.6896823395719
 20
63.69377666954663
 30
0.0
 50
90.0
  0
MTEXT
  5
86E
330
866
100
AcDbEntity
  8
寸法線
 62
     0
440
 16777216
100
AcDbMText
 10
123.1396823395719
 20
62.19377666954666
 30
0.0
 40
2.5
 41
0.0
 46
0.0
 71
     5
 72
     1
  1
3
 11
0.0000000000000001
 21
1.0
 31
0.0
 73
     1
 44
1.0
  0
POINT
  5
86F
330
866
100
AcDbEntity
  8
Defpoints
 62
     0
440
 16777216
100
AcDbPoint
 10
109.7486179341109
 20
60.69377666954665
 30
0.0
  0
POINT
  5
870
330
866
100
AcDbEntity
  8
Defpoints
 62
     0
440
 16777216
100
AcDbPoint
 10
62.8699382776706
 20
63.69377666954665
 30
0.0
  0
POINT
  5
871
330
866
100
AcDbEntity
  8
Defpoints
 62
     0
440
 16777216
100
AcDbPoint
 10
124.6896823395719
 20
63.69377666954663
 30
0.0
  0
ENDBLK
  5
868
330
866
100
AcDbEntity
  8
0
100
AcDbBlockEnd
  0
BLOCK
  5
874
330
873
100
AcDbEntity
  8
0
100
AcDbBlockBegin
  2
*D38
 70
     1
 10
0.0
 20
0.0
 30
0.0
  3
*D38
  1

  0
LINE
  5
888
330
873
100
AcDbEntity
  8
寸法線
 62
     0
440
 16777216
370
    -2
100
AcDbLine
 10
63.4949382776706
 20
63.69377666954665
 30
0.0
 11
142.1896823395719
 21
63.69377666954663
 31
0.0
  0
LINE
  5
889
330
873
100
AcDbEntity
  8
寸法線
 62
     0
440
 16777216
370
    -2
100
AcDbLine
 10
110.4280840281782
 20
11.19377666954665
 30
0.0
 11
142.1896823395719
 21
11.19377666954664
 31
0.0
  0
LINE
  5
88A
330
873
100
AcDbEntity
  8
寸法線
 62
     0
440
 16777216
370
    -2
100
AcDbLine
 10
140.9396823395719
 20
63.69377666954663
 30
0.0
 11
140.9396823395719
 21
11.19377666954664
 31
0.0
  0
INSERT
  5
88B
330
873
100
AcDbEntity
  8
寸法線
 62
     0
440
 16777216
370
    -2
100
AcDbBlockReference
  2
_DotSmall
 10
140.9396823395719
 20
63.69377666954663
 30
0.0
 50
90.0
  0
INSERT
  5
88C
330
873
100
AcDbEntity
  8
寸法線
 62
     0
440
 16777216
370
    -2
100
AcDbBlockReference
  2
_DotSmall
 10
140.9396823395719
 20
11.19377666954664
 30
0.0
 50
270.0
  0
MTEXT
  5
88D
330
873
100
AcDbEntity
  8
寸法線
 62
     0
440
 16777216
100
AcDbMText
 10
139.3896823395719
 20
37.44377666954666
 30
0.0
 40
2.5
 41
0.0
 46
0.0
 71
     5
 72
     1
  1
52.5
 11
0.0000000000000001
 21
1.0
 31
0.0
 73
     1
 44
1.0
  0
POINT
  5
88E
330
873
100
AcDbEntity
  8
Defpoints
 62
     0
440
 16777216
100
AcDbPoint
 10
62.8699382776706
 20
63.69377666954665
 30
0.0
  0
POINT
  5
88F
330
873
100
AcDbEntity
  8
Defpoints
 62
     0
440
 16777216
100
AcDbPoint
 10
109.8030840281782
 20
11.19377666954665
 30
0.0
  0
POINT
  5
890
330
873
100
AcDbEntity
  8
Defpoints
 62
     0
440
 16777216
100
AcDbPoint
 10
140.9396823395719
 20
11.19377666954664
 30
0.0
  0
ENDBLK
  5
875
330
873
100
AcDbEntity
  8
0
100
AcDbBlockEnd
  0
BLOCK
  5
89E
330
89D
100
AcDbEntity
  8
0
100
AcDbBlockBegin
  2
*D39
 70
     1
 10
0.0
 20
0.0
 30
0.0
  3
*D39
  1

  0
LINE
  5
8A0
330
89D
100
AcDbEntity
  8
寸法線
 62
     0
440
 16777216
370
    -2
100
AcDbLine
 10
113.3386179341109
 20
14.10431057547939
 30
0.0
 11
113.3386179341109
 21
-4.939403178903802
 31
0.0
  0
LINE
  5
8A1
330
89D
100
AcDbEntity
  8
寸法線
 62
     0
440
 16777216
370
    -2
100
AcDbLine
 10
109.8030840281782
 20
10.56877666954665
 30
0.0
 11
109.8030840281782
 21
-4.939403178903802
 31
0.0
  0
LINE
  5
8A2
330
89D
100
AcDbEntity
  8
寸法線
 62
     0
440
 16777216
370
    -2
100
AcDbLine
 10
113.3386179341109
 20
-3.689403178903802
 30
0.0
 11
109.8030840281782
 21
-3.689403178903802
 31
0.0
  0
LINE
  5
8A3
330
89D
100
AcDbEntity
  8
寸法線
 62
     0
440
 16777216
370
    -2
100
AcDbLine
 10
109.8030840281782
 20
-3.689403178903802
 30
0.0
 11
100.7030840281782
 21
-3.689403178903802
 31
0.0
  0
INSERT
  5
8A4
330
89D
100
AcDbEntity
  8
寸法線
 62
     0
440
 16777216
370
    -2
100
AcDbBlockReference
  2
_DotSmall
 10
113.3386179341109
 20
-3.689403178903802
 30
0.0
  0
INSERT
  5
8A5
330
89D
100
AcDbEntity
  8
寸法線
 62
     0
440
 16777216
370
    -2
100
AcDbBlockReference
  2
_DotSmall
 10
109.8030840281782
 20
-3.689403178903802
 30
0.0
 50
180.0
  0
MTEXT
  5
8A6
330
89D
100
AcDbEntity
  8
寸法線
 62
     0
440
 16777216
100
AcDbMText
 10
104.7530840281782
 20
-2.139403178903802
 30
0.0
 40
2.5
 41
0.0
 46
0.0
 71
     5
 72
     1
  1
3.54
 73
     1
 44
1.0
  0
POINT
  5
8A7
330
89D
100
AcDbEntity
  8
Defpoints
 62
     0
440
 16777216
100
AcDbPoint
 10
113.3386179341109
 20
14.72931057547939
 30
0.0
  0
POINT
  5
8A8
330
89D
100
AcDbEntity
  8
Defpoints
 62
     0
440
 16777216
100
AcDbPoint
 10
109.8030840281782
 20
11.19377666954665
 30
0.0
  0
POINT
  5
8A9
330
89D
100
AcDbEntity
  8
Defpoints
 62
     0
440
 16777216
100
AcDbPoint
 10
109.8030840281782
 20
-3.689403178903802
 30
0.0
  0
ENDBLK
  5
89F
330
89D
100
AcDbEntity
  8
0
100
AcDbBlockEnd
  0
BLOCK
  5
8AC
330
8AB
100
AcDbEntity
  8
0
100
AcDbBlockBegin
  2
*D40
 70
     1
 10
0.0
 20
0.0
 30
0.0
  3
*D40
  1

  0
LINE
  5
8AE
330
8AB
100
AcDbEntity
  8
寸法線
 62
     0
440
 16777216
370
    -2
100
AcDbLine
 10
113.7805596723525
 20
14.2873688372378
 30
0.0
 11
124.777292656805
 21
3.290635852785385
 31
0.0
  0
LINE
  5
8AF
330
8AB
100
AcDbEntity
  8
寸法線
 62
     0
440
 16777216
370
    -2
100
AcDbLine
 10
110.2450257664198
 20
10.75183493130506
 30
0.0
 11
121.2417587508723
 21
-0.2448980531473524
 31
0.0
  0
LINE
  5
8B0
330
8AB
100
AcDbEntity
  8
寸法線
 62
     0
440
 16777216
370
    -2
100
AcDbLine
 10
123.8934091803219
 20
4.174519329268562
 30
0.0
 11
120.3578752743891
 21
0.638985423335825
 31
0.0
  0
INSERT
  5
8B1
330
8AB
100
AcDbEntity
  8
寸法線
 62
     0
440
 16777216
370
    -2
100
AcDbBlockReference
  2
_DotSmall
 10
123.8934091803219
 20
4.174519329268562
 30
0.0
 50
45.00000000000015
  0
INSERT
  5
8B2
330
8AB
100
AcDbEntity
  8
寸法線
 62
     0
440
 16777216
370
    -2
100
AcDbBlockReference
  2
_DotSmall
 10
120.3578752743891
 20
0.638985423335825
 30
0.0
 50
225.0000000000001
  0
MTEXT
  5
8B3
330
8AB
100
AcDbEntity
  8
寸法線
 62
     0
440
 16777216
100
AcDbMText
 10
121.0296267165163
 20
3.502767887141324
 30
0.0
 40
2.5
 41
0.0
 46
0.0
 71
     5
 72
     1
  1
5
 11
0.7071067811865457
 21
0.7071067811865494
 31
0.0
 73
     1
 44
1.0
  0
POINT
  5
8B4
330
8AB
100
AcDbEntity
  8
Defpoints
 62
     0
440
 16777216
100
AcDbPoint
 10
113.3386179341109
 20
14.72931057547939
 30
0.0
  0
POINT
  5
8B5
330
8AB
100
AcDbEntity
  8
Defpoints
 62
     0
440
 16777216
100
AcDbPoint
 10
109.8030840281782
 20
11.19377666954665
 30
0.0
  0
POINT
  5
8B6
330
8AB
100
AcDbEntity
  8
Defpoints
 62
     0
440
 16777216
100
AcDbPoint
 10
120.3578752743891
 20
0.638985423335825
 30
0.0
  0
ENDBLK
  5
8AD
330
8AB
100
AcDbEntity
  8
0
100
AcDbBlockEnd
  0
BLOCK
  5
8B9
330
8B8
100
AcDbEntity
  8
0
100
AcDbBlockBegin
  2
*D41
 70
     1
 10
0.0
 20
0.0
 30
0.0
  3
*D41
  1

  0
LINE
  5
8BB
330
8B8
100
AcDbEntity
  8
寸法線
 62
     0
440
 16777216
370
    -2
100
AcDbLine
 10
109.3611422899366
 20
10.75183493130505
 30
0.0
 11
98.373866188561
 21
-0.2354411700706294
 31
0.0
  0
LINE
  5
8BC
330
8B8
100
AcDbEntity
  8
寸法線
 62
     0
440
 16777216
370
    -2
100
AcDbLine
 10
106.8862685557837
 20
13.22670866545796
 30
0.0
 11
95.89899245440808
 21
2.239432564082278
 31
0.0
  0
LINE
  5
8BD
330
8B8
100
AcDbEntity
  8
寸法線
 62
     0
440
 16777216
370
    -2
100
AcDbLine
 10
99.25774966504418
 20
0.6484423064125551
 30
0.0
 11
96.78287593089125
 21
3.123316040565462
 31
0.0
  0
LINE
  5
8BE
330
8B8
100
AcDbEntity
  8
寸法線
 62
     0
440
 16777216
370
    -2
100
AcDbLine
 10
96.78287593089125
 20
3.123316040565462
 30
0.0
 11
92.11597117506002
 21
7.790220796396667
 31
0.0
  0
INSERT
  5
8BF
330
8B8
100
AcDbEntity
  8
寸法線
 62
     0
440
 16777216
370
    -2
100
AcDbBlockReference
  2
_DotSmall
 10
99.25774966504418
 20
0.6484423064125551
 30
0.0
 50
315.0000000000002
  0
INSERT
  5
8C0
330
8B8
100
AcDbEntity
  8
寸法線
 62
     0
440
 16777216
370
    -2
100
AcDbBlockReference
  2
_DotSmall
 10
96.78287593089125
 20
3.123316040565462
 30
0.0
 50
135.0000000000001
  0
MTEXT
  5
8C1
330
8B8
100
AcDbEntity
  8
寸法線
 62
     0
440
 16777216
100
AcDbMText
 10
95.19188567322151
 20
6.906337319913482
 30
0.0
 40
2.5
 41
0.0
 46
0.0
 71
     5
 72
     1
  1
3.5
 11
0.7071067811865495
 21
-0.7071067811865457
 31
0.0
 73
     1
 44
1.0
  0
POINT
  5
8C2
330
8B8
100
AcDbEntity
  8
Defpoints
 62
     0
440
 16777216
100
AcDbPoint
 10
109.8030840281782
 20
11.19377666954665
 30
0.0
  0
POINT
  5
8C3
330
8B8
100
AcDbEntity
  8
Defpoints
 62
     0
440
 16777216
100
AcDbPoint
 10
107.3282102940253
 20
13.66865040369956
 30
0.0
  0
POINT
  5
8C4
330
8B8
100
AcDbEntity
  8
Defpoints
 62
     0
440
 16777216
100
AcDbPoint
 10
96.78287593089125
 20
3.123316040565462
 30
0.0
  0
ENDBLK
  5
8BA
330
8B8
100
AcDbEntity
  8
0
100
AcDbBlockEnd
  0
BLOCK
  5
8D7
330
8D6
100
AcDbEntity
  8
0
100
AcDbBlockBegin
  2
*D43
 70
     1
 10
0.0
 20
0.0
 30
0.0
  3
*D43
  1

  0
LINE
  5
8F5
330
8D6
100
AcDbEntity
  8
寸法線
 62
     0
440
 16777216
370
    -2
100
AcDbLine
 10
121.6837004891139
 20
-0.6868397913889411
 30
0.0
 11
132.7204700455132
 21
-11.72360934778809
 31
0.0
  0
LINE
  5
8F6
330
8D6
100
AcDbEntity
  8
寸法線
 62
     0
440
 16777216
370
    -2
100
AcDbLine
 10
125.3146823395719
 20
11.19377666954666
 30
0.0
 11
142.2131621480327
 21
11.19377666954665
 31
0.0
  0
ARC
  5
8F7
330
8D6
100
AcDbEntity
  8
寸法線
 62
     0
440
 16777216
370
    -2
100
AcDbCircle
 10
109.8030840281782
 20
11.19377666954665
 30
0.0
 40
31.16007811985449
100
AcDbArc
 50
315.0000000000003
 51
0.0
  0
INSERT
  5
8F8
330
8D6
100
AcDbEntity
  8
寸法線
 62
     0
440
 16777216
370
    -2
100
AcDbBlockReference
  2
_DotSmall
 10
131.83658656903
 20
-10.83972587130491
 30
0.0
 50
225.0000000000003
  0
INSERT
  5
8F9
330
8D6
100
AcDbEntity
  8
寸法線
 62
     0
440
 16777216
370
    -2
100
AcDbBlockReference
  2
_DotSmall
 10
140.9631621480327
 20
11.19377666954666
 30
0.0
 50
90.0
  0
MTEXT
  5
8FA
330
8D6
100
AcDbEntity
  8
寸法線
 62
     0
440
 16777216
100
AcDbMText
 10
137.1592291591721
 20
-0.1375096579576862
 30
0.0
 40
2.5
 41
0.0
 46
0.0
 71
     5
 72
     1
  1
45\U+00B0
 11
0.3826834323650878
 21
0.9238795325112876
 31
0.0
 73
     1
 44
1.0
  0
POINT
  5
8FB
330
8D6
100
AcDbEntity
  8
Defpoints
 62
     0
440
 16777216
100
AcDbPoint
 10
136.7885032638799
 20
-4.386262390380501
 30
0.0
  0
POINT
  5
8FC
330
8D6
100
AcDbEntity
  8
Defpoints
 62
     0
440
 16777216
100
AcDbPoint
 10
109.8030840281782
 20
11.19377666954665
 30
0.0
  0
POINT
  5
8FD
330
8D6
100
AcDbEntity
  8
Defpoints
 62
     0
440
 16777216
100
AcDbPoint
 10
109.8030840281782
 20
11.19377666954665
 30
0.0
  0
POINT
  5
8FE
330
8D6
100
AcDbEntity
  8
Defpoints
 62
     0
440
 16777216
100
AcDbPoint
 10
121.2417587508723
 20
-0.2448980531473524
 30
0.0
  0
POINT
  5
8FF
330
8D6
100
AcDbEntity
  8
Defpoints
 62
     0
440
 16777216
100
AcDbPoint
 10
124.6896823395719
 20
11.19377666954666
 30
0.0
  0
ENDBLK
  5
8D8
330
8D6
100
AcDbEntity
  8
0
100
AcDbBlockEnd
  0
ENDSEC
  0
SECTION
  2
ENTITIES
  0
LINE
  5
75D
330
1F
100
AcDbEntity
  8
寸法線
100
AcDbLine
 10
24.74861793411094
 20
56.89377666954666
 30
0.0
 11
24.74861793411094
 21
55.99377666954665
 31
0.0
  0
LINE
  5
75E
330
1F
100
AcDbEntity
  8
寸法線
100
AcDbLine
 10
24.44861793411094
 20
55.69377666954665
 30
0.0
 11
21.54861793411094
 21
55.69377666954665
 31
0.0
  0
LINE
  5
75F
330
1F
100
AcDbEntity
  8
寸法線
100
AcDbLine
 10
21.24861793411094
 20
55.99377666954665
 30
0.0
 11
21.24861793411094
 21
60.89377666954665
 31
0.0
  0
LINE
  5
760
330
1F
100
AcDbEntity
  8
寸法線
100
AcDbLine
 10
21.54861793411094
 20
61.19377666954665
 30
0.0
 11
42.50303352183935
 21
61.19377666954664
 31
0.0
  0
LINE
  5
763
330
1F
100
AcDbEntity
  8
寸法線
100
AcDbLine
 10
24.44861793411094
 20
57.19377666954665
 30
0.0
 11
23.04861793411094
 21
57.19377666954665
 31
0.0
  0
LINE
  5
764
330
1F
100
AcDbEntity
  8
寸法線
100
AcDbLine
 10
22.74861793411094
 20
57.49377666954664
 30
0.0
 11
22.74861793411094
 21
59.39377666954666
 31
0.0
  0
LINE
  5
765
330
1F
100
AcDbEntity
  8
寸法線
100
AcDbLine
 10
23.04861793411094
 20
59.69377666954665
 30
0.0
 11
43.124353865399
 21
59.69377666954666
 31
0.0
  0
LINE
  5
76D
330
1F
100
AcDbEntity
  8
寸法線
100
AcDbLine
 10
54.51823317638129
 20
63.69377666954665
 30
0.0
 11
62.74567420895866
 21
63.69377666954665
 31
0.0
  0
LINE
  5
76E
330
1F
100
AcDbEntity
  8
寸法線
100
AcDbLine
 10
53.47900269184059
 20
63.69377666954665
 30
0.0
 11
45.25156165926323
 21
63.69377666954665
 31
0.0
  0
LINE
  5
76F
330
1F
100
AcDbEntity
  8
寸法線
100
AcDbLine
 10
53.99861793411094
 20
62.19377666954665
 30
0.0
 11
62.124353865399
 21
62.19377666954665
 31
0.0
  0
LINE
  5
770
330
1F
100
AcDbEntity
  8
寸法線
100
AcDbLine
 10
53.99861793411094
 20
62.19377666954665
 30
0.0
 11
45.87288200282286
 21
62.19377666954665
 31
0.0
  0
LINE
  5
775
330
1F
100
AcDbEntity
  8
寸法線
100
AcDbLine
 10
62.33648589975497
 20
62.10590870390262
 30
0.0
 11
65.16074996846692
 21
59.28164463519069
 31
0.0
  0
LINE
  5
776
330
1F
100
AcDbEntity
  8
寸法線
100
AcDbLine
 10
45.6607499684669
 20
62.10590870390262
 30
0.0
 11
43.33648589975496
 21
59.78164463519068
 31
0.0
  0
LINE
  5
77C
330
1F
100
AcDbEntity
  8
寸法線
100
AcDbLine
 10
62.95780624331463
 20
63.60590870390261
 30
0.0
 11
65.78207031202653
 21
60.7816446351907
 31
0.0
  0
LINE
  5
77D
330
1F
100
AcDbEntity
  8
寸法線
100
AcDbLine
 10
45.03942962490727
 20
63.60590870390262
 30
0.0
 11
42.7151655561953
 21
61.28164463519067
 31
0.0
  0
LINE
  5
77E
330
1F
100
AcDbEntity
  8
寸法線
100
AcDbLine
 10
65.37288200282287
 20
59.19377666954666
 30
0.0
 11
107.9486179341109
 21
59.19377666954666
 31
0.0
  0
LINE
  5
77F
330
1F
100
AcDbEntity
  8
寸法線
100
AcDbLine
 10
65.99420234638249
 20
60.69377666954666
 30
0.0
 11
109.4486179341109
 21
60.69377666954665
 31
0.0
  0
ARC
  5
789
330
1F
100
AcDbEntity
  8
寸法線
100
AcDbCircle
 10
53.99861793411094
 20
63.69377666954665
 30
0.0
 40
0.3
100
AcDbArc
 50
210.000000000015
 51
329.999999999985
  0
LINE
  5
79B
330
1F
100
AcDbEntity
  8
寸法線
100
AcDbLine
 10
113.126485899755
 20
14.51717854112343
 30
0.0
 11
110.0152160625341
 21
11.40590870390261
 31
0.0
  0
LINE
  5
79C
330
1F
100
AcDbEntity
  8
寸法線
100
AcDbLine
 10
109.5909519938222
 20
11.40590870390261
 30
0.0
 11
107.5403423283812
 21
13.4565183693436
 31
0.0
  0
LINE
  5
79D
330
1F
100
AcDbEntity
  8
寸法線
100
AcDbLine
 10
107.5403423283812
 20
13.88078243805552
 30
0.0
 11
108.1767384314491
 21
14.51717854112342
 31
0.0
  0
LINE
  5
79E
330
1F
100
AcDbEntity
  8
寸法線
100
AcDbLine
 10
108.601002500161
 20
14.51717854112342
 30
0.0
 11
109.5909519938222
 21
13.52722904746225
 31
0.0
  0
LINE
  5
79F
330
1F
100
AcDbEntity
  8
寸法線
100
AcDbLine
 10
110.0152160625341
 20
13.52722904746225
 30
0.0
 11
111.0051655561953
 21
14.51717854112343
 31
0.0
  0
LINE
  5
7A0
330
1F
100
AcDbEntity
  8
寸法線
100
AcDbLine
 10
111.0051655561953
 20
14.94144260983535
 30
0.0
 11
108.336485899755
 21
17.61012226627569
 31
0.0
  0
LINE
  5
7A1
330
1F
100
AcDbEntity
  8
寸法線
100
AcDbLine
 10
109.7486179341109
 20
60.39377666954664
 30
0.0
 11
109.7486179341109
 21
18.44357464419131
 31
0.0
  0
LINE
  5
7A2
330
1F
100
AcDbEntity
  8
寸法線
100
AcDbLine
 10
108.2486179341109
 20
58.89377666954666
 30
0.0
 11
108.2486179341109
 21
17.82225430063165
 31
0.0
  0
LINE
  5
7A3
330
1F
100
AcDbEntity
  8
寸法線
100
AcDbLine
 10
113.126485899755
 20
14.94144260983535
 30
0.0
 11
109.836485899755
 21
18.23144260983534
 31
0.0
  0
DIMENSION
  5
7A6
330
1F
100
AcDbEntity
  8
寸法線
100
AcDbDimension
280
     0
  2
*D24
 10
53.99861793411094
 20
78.19948713249633
 30
0.0
 11
37.62361793411094
 21
79.74948713249633
 31
0.0
 70
    32
 71
     5
 42
32.75
 73
     0
 74
     0
 75
     0
  3
ISO-25
100
AcDbAlignedDimension
 13
21.24861793411094
 23
61.19377666954665
 33
0.0
 14
53.99861793411094
 24
63.39377666954665
 34
0.0
100
AcDbRotatedDimension
1001
ACAD
1000
DSTYLE
1002
{
1070
    41
1040
1.0
1070
   147
1040
0.3
1070
   341
1005
B3
1070
   342
1005
B9
1002
}
  0
DIMENSION
  5
7D1
330
1F
100
AcDbEntity
  8
寸法線
100
AcDbDimension
280
     0
  2
*D27
 10
21.24861793411094
 20
93.49348293479824
 30
0.0
 11
65.49861793411094
 21
95.04348293479823
 31
0.0
 70
    32
 71
     5
 42
88.49999999999999
 73
     0
 74
     0
 75
     0
  3
ISO-25
100
AcDbAlignedDimension
 13
109.7486179341109
 23
60.69377666954665
 33
0.0
 14
21.24861793411094
 24
61.19377666954665
 34
0.0
100
AcDbRotatedDimension
1001
ACAD
1000
DSTYLE
1002
{
1070
    41
1040
1.0
1070
   147
1040
0.3
1070
   341
1005
B3
1070
   342
1005
B9
1002
}
  0
DIMENSION
  5
7E7
330
1F
100
AcDbEntity
  8
寸法線
100
AcDbDimension
280
     0
  2
*D28
 10
6.253925696855022
 20
55.69377666954665
 30
0.0
 11
4.703925696855013
 21
51.89377666954666
 31
0.0
 70
    32
 71
     5
 42
5.500000000000007
 73
     0
 74
     0
 75
     0
  3
ISO-25
100
AcDbAlignedDimension
 13
21.24861793411094
 23
61.19377666954665
 33
0.0
 14
21.24861793411094
 24
55.69377666954665
 34
0.0
 50
90.0
100
AcDbRotatedDimension
1001
ACAD
1000
DSTYLE
1002
{
1070
    41
1040
1.0
1070
   147
1040
0.3
1070
   341
1005
B3
1070
   342
1005
B9
1002
}
  0
DIMENSION
  5
7F5
330
1F
100
AcDbEntity
  8
寸法線
100
AcDbDimension
280
     0
  2
*D29
 10
6.253925696855024
 20
63.69377666954665
 30
0.0
 11
1.753925696855013
 21
63.62877666954665
 31
0.0
 70
    32
 71
     5
 42
2.5
 73
     0
 74
     0
 75
     0
  3
ISO-25
100
AcDbAlignedDimension
 13
21.24861793411094
 23
61.19377666954665
 33
0.0
 14
45.1272975905513
 24
63.69377666954665
 34
0.0
 50
90.0
100
AcDbRotatedDimension
1001
ACAD
1000
DSTYLE
1002
{
1070
   279
1070
     1
1070
    41
1040
1.0
1070
   147
1040
0.3
1070
   341
1005
B3
1070
   342
1005
B9
1002
}
  0
DIMENSION
  5
804
330
1F
100
AcDbEntity
  8
寸法線
100
AcDbDimension
280
     0
  2
*D30
 10
24.74861793411094
 20
40.74079596861691
 30
0.0
 11
28.54861793411094
 21
42.29079596861691
 31
0.0
 70
    32
 71
     5
 42
3.5
 73
     0
 74
     0
 75
     0
  3
ISO-25
100
AcDbAlignedDimension
 13
21.24861793411094
 23
55.69377666954665
 33
0.0
 14
24.74861793411094
 24
55.69377666954665
 34
0.0
100
AcDbRotatedDimension
1001
ACAD
1000
DSTYLE
1002
{
1070
    41
1040
1.0
1070
   147
1040
0.3
1070
   341
1005
B3
1070
   342
1005
B9
1002
}
  0
DIMENSION
  5
812
330
1F
100
AcDbEntity
  8
寸法線
100
AcDbDimension
280
     0
  2
*D31
 10
62.24861793411093
 20
47.3419693461853
 30
0.0
 11
53.99861793411094
 21
48.89196934618531
 31
0.0
 70
    32
 71
     5
 42
16.5
 73
     0
 74
     0
 75
     0
  3
ISO-25
100
AcDbAlignedDimension
 13
45.74861793411094
 23
62.19377666954665
 33
0.0
 14
62.24861793411093
 24
62.19377666954665
 34
0.0
100
AcDbRotatedDimension
1001
ACAD
1000
DSTYLE
1002
{
1070
    41
1040
1.0
1070
   147
1040
0.3
1070
   341
1005
B3
1070
   342
1005
B9
1002
}
  0
DIMENSION
  5
81F
330
1F
100
AcDbEntity
  8
寸法線
100
AcDbDimension
280
     0
  2
*D32
 10
65.24861793411094
 20
44.20041894329643
 30
0.0
 11
54.24861793411094
 21
45.75041894329642
 31
0.0
 70
    32
 71
     5
 42
22.00000000000001
 73
     0
 74
     0
 75
     0
  3
ISO-25
100
AcDbAlignedDimension
 13
43.24861793411093
 23
59.69377666954666
 33
0.0
 14
65.24861793411094
 24
59.19377666954666
 34
0.0
100
AcDbRotatedDimension
1001
ACAD
1000
DSTYLE
1002
{
1070
    41
1040
1.0
1070
   147
1040
0.3
1070
   341
1005
B3
1070
   342
1005
B9
1002
}
  0
DIMENSION
  5
849
330
1F
100
AcDbEntity
  8
寸法線
100
AcDbDimension
280
     0
  2
*D35
 10
113.3386179341109
 20
93.49348293479824
 30
0.0
 11
112.7286179341109
 21
97.99348293479823
 31
0.0
 70
    32
 71
     5
 42
3.590000000000017
 73
     0
 74
     0
 75
     0
  3
ISO-25
100
AcDbAlignedDimension
 13
109.7486179341109
 23
60.69377666954665
 33
0.0
 14
113.3386179341109
 24
14.72931057547939
 34
0.0
100
AcDbRotatedDimension
1001
ACAD
1000
DSTYLE
1002
{
1070
   279
1070
     1
1070
    41
1040
1.0
1070
   147
1040
0.3
1070
   341
1005
B3
1070
   342
1005
B9
1002
}
  0
DIMENSION
  5
858
330
1F
100
AcDbEntity
  8
寸法線
100
AcDbDimension
280
     0
  2
*D36
 10
124.6896823395719
 20
11.19377666954664
 30
0.0
 11
123.1396823395719
 21
35.94377666954667
 31
0.0
 70
    32
 71
     5
 42
49.49999999999999
 73
     0
 74
     0
 75
     0
  3
ISO-25
100
AcDbAlignedDimension
 13
109.7486179341109
 23
60.69377666954665
 33
0.0
 14
109.8030840281782
 24
11.19377666954665
 34
0.0
 50
90.0
100
AcDbRotatedDimension
1001
ACAD
1000
DSTYLE
1002
{
1070
    41
1040
1.0
1070
   147
1040
0.3
1070
   341
1005
B3
1070
   342
1005
B9
1002
}
  0
DIMENSION
  5
865
330
1F
100
AcDbEntity
  8
寸法線
100
AcDbDimension
280
     0
  2
*D37
 10
124.6896823395719
 20
63.69377666954663
 30
0.0
 11
123.1396823395719
 21
62.19377666954666
 31
0.0
 70
    32
 71
     5
 42
3.0
 73
     0
 74
     0
 75
     0
  3
ISO-25
100
AcDbAlignedDimension
 13
109.7486179341109
 23
60.69377666954665
 33
0.0
 14
62.8699382776706
 24
63.69377666954665
 34
0.0
 50
90.0
100
AcDbRotatedDimension
1001
ACAD
1000
DSTYLE
1002
{
1070
   279
1070
     1
1070
    41
1040
1.0
1070
   147
1040
0.3
1070
   341
1005
B3
1070
   342
1005
B9
1002
}
  0
DIMENSION
  5
872
330
1F
100
AcDbEntity
  8
寸法線
100
AcDbDimension
280
     0
  2
*D38
 10
140.9396823395719
 20
11.19377666954664
 30
0.0
 11
139.3896823395719
 21
37.44377666954666
 31
0.0
 70
    32
 71
     5
 42
52.49999999999999
 73
     0
 74
     0
 75
     0
  3
ISO-25
100
AcDbAlignedDimension
 13
62.8699382776706
 23
63.69377666954665
 33
0.0
 14
109.8030840281782
 24
11.19377666954665
 34
0.0
 50
90.0
100
AcDbRotatedDimension
1001
ACAD
1000
DSTYLE
1002
{
1070
    41
1040
1.0
1070
   147
1040
0.3
1070
   341
1005
B3
1070
   342
1005
B9
1002
}
  0
DIMENSION
  5
89C
330
1F
100
AcDbEntity
  8
寸法線
100
AcDbDimension
280
     0
  2
*D39
 10
109.8030840281782
 20
-3.689403178903802
 30
0.0
 11
104.7530840281782
 21
-2.139403178903802
 31
0.0
 70
    32
 71
     5
 42
3.535533905932737
 73
     0
 74
     0
 75
     0
  3
ISO-25
100
AcDbAlignedDimension
 13
113.3386179341109
 23
14.72931057547939
 33
0.0
 14
109.8030840281782
 24
11.19377666954665
 34
0.0
100
AcDbRotatedDimension
1001
ACAD
1000
DSTYLE
1002
{
1070
    41
1040
1.0
1070
   147
1040
0.3
1070
   341
1005
B3
1070
   342
1005
B9
1002
}
  0
DIMENSION
  5
8AA
330
1F
100
AcDbEntity
  8
寸法線
100
AcDbDimension
280
     0
  2
*D40
 10
120.3578752743891
 20
0.638985423335825
 30
0.0
 11
121.0296267165163
 21
3.502767887141324
 31
0.0
 70
    33
 71
     5
 42
4.999999999999985
 73
     0
 74
     0
 75
     0
  3
ISO-25
100
AcDbAlignedDimension
 13
113.3386179341109
 23
14.72931057547939
 33
0.0
 14
109.8030840281782
 24
11.19377666954664
 34
0.0
1001
ACAD
1000
DSTYLE
1002
{
1070
    41
1040
1.0
1070
   147
1040
0.3
1070
   341
1005
B3
1070
   342
1005
B9
1002
}
  0
DIMENSION
  5
8B7
330
1F
100
AcDbEntity
  8
寸法線
100
AcDbDimension
280
     0
  2
*D41
 10
96.78287593089125
 20
3.123316040565462
 30
0.0
 11
95.19188567322151
 21
6.906337319913482
 31
0.0
 70
    33
 71
     5
 42
3.5
 73
     0
 74
     0
 75
     0
  3
ISO-25
100
AcDbAlignedDimension
 13
109.8030840281782
 23
11.19377666954665
 33
0.0
 14
107.3282102940253
 24
13.66865040369956
 34
0.0
1001
ACAD
1000
DSTYLE
1002
{
1070
    41
1040
1.0
1070
   147
1040
0.3
1070
   341
1005
B3
1070
   342
1005
B9
1002
}
  0
DIMENSION
  5
8D5
330
1F
100
AcDbEntity
  8
寸法線
100
AcDbDimension
280
     0
  2
*D43
 10
124.6896823395719
 20
11.19377666954664
 30
0.0
 11
137.1592291591721
 21
-0.1375096579576578
 31
0.0
 70
    34
 71
     5
 42
0.785398163397443
 73
     0
 74
     0
 75
     0
  3
ISO-25
100
AcDb2LineAngularDimension
 13
109.8030840281782
 23
11.19377666954665
 33
0.0
 14
121.2417587508723
 24
-0.2448980531473524
 34
0.0
 15
109.8030840281782
 25
11.19377666954665
 35
0.0
 16
136.7885032638799
 26
-4.386262390380501
 36
0.0
1001
ACAD
1000
DSTYLE
1002
{
1070
    41
1040
1.0
1070
   147
1040
0.3
1070
   341
1005
B3
1070
   342
1005
B9
1002
}
  0
ARC
  5
902
330
1F
100
AcDbEntity
  8
寸法線
100
AcDbCircle
 10
21.54861793411094
 20
60.89377666954665
 30
0.0
 40
0.3
100
AcDbArc
 50
89.99999999999998
 51
180.0
  0
ARC
  5
903
330
1F
100
AcDbEntity
  8
寸法線
100
AcDbCircle
 10
21.54861793411094
 20
55.99377666954665
 30
0.0
 40
0.3
100
AcDbArc
 50
180.0
 51
270.0
  0
ARC
  5
904
330
1F
100
AcDbEntity
  8
寸法線
100
AcDbCircle
 10
24.44861793411094
 20
55.99377666954665
 30
0.0
 40
0.3
100
AcDbArc
 50
270.0
 51
0.0
  0
ARC
  5
905
330
1F
100
AcDbEntity
  8
寸法線
100
AcDbCircle
 10
24.44861793411094
 20
56.89377666954666
 30
0.0
 40
0.3
100
AcDbArc
 50
0.0
 51
90.0
  0
ARC
  5
906
330
1F
100
AcDbEntity
  8
寸法線
100
AcDbCircle
 10
23.04861793411094
 20
57.49377666954664
 30
0.0
 40
0.3
100
AcDbArc
 50
180.0
 51
270.0
  0
ARC
  5
907
330
1F
100
AcDbEntity
  8
寸法線
100
AcDbCircle
 10
23.04861793411094
 20
59.39377666954666
 30
0.0
 40
0.3
100
AcDbArc
 50
90.00000000000003
 51
180.0
  0
ARC
  5
908
330
1F
100
AcDbEntity
  8
寸法線
100
AcDbCircle
 10
43.124353865399
 20
59.99377666954665
 30
0.0
 40
0.3
100
AcDbArc
 50
270.0
 51
314.9999999999999
  0
ARC
  5
909
330
1F
100
AcDbEntity
  8
寸法線
100
AcDbCircle
 10
42.50303352183935
 20
61.49377666954664
 30
0.0
 40
0.3
100
AcDbArc
 50
270.0
 51
314.9999999999999
  0
ARC
  5
90A
330
1F
100
AcDbEntity
  8
寸法線
100
AcDbCircle
 10
45.25156165926323
 20
63.39377666954665
 30
0.0
 40
0.3
100
AcDbArc
 50
90.0
 51
134.9999999999998
  0
ARC
  5
90B
330
1F
100
AcDbEntity
  8
寸法線
100
AcDbCircle
 10
45.87288200282286
 20
61.89377666954666
 30
0.0
 40
0.3
100
AcDbArc
 50
90.0
 51
134.9999999999998
  0
ARC
  5
90C
330
1F
100
AcDbEntity
  8
寸法線
100
AcDbCircle
 10
53.47900269184059
 20
63.39377666954664
 30
0.0
 40
0.3
100
AcDbArc
 50
30.00000000001579
 51
90.0
  0
ARC
  5
90D
330
1F
100
AcDbEntity
  8
寸法線
100
AcDbCircle
 10
54.51823317638129
 20
63.39377666954665
 30
0.0
 40
0.3
100
AcDbArc
 50
90.0
 51
149.9999999999854
  0
ARC
  5
90E
330
1F
100
AcDbEntity
  8
寸法線
100
AcDbCircle
 10
62.74567420895866
 20
63.39377666954665
 30
0.0
 40
0.3
100
AcDbArc
 50
44.99999999999984
 51
90.0
  0
ARC
  5
90F
330
1F
100
AcDbEntity
  8
寸法線
100
AcDbCircle
 10
62.124353865399
 20
61.89377666954666
 30
0.0
 40
0.3
100
AcDbArc
 50
45.00000000000005
 51
90.0
  0
ARC
  5
910
330
1F
100
AcDbEntity
  8
寸法線
100
AcDbCircle
 10
65.99420234638249
 20
60.99377666954666
 30
0.0
 40
0.3
100
AcDbArc
 50
224.9999999999999
 51
270.0
  0
ARC
  5
911
330
1F
100
AcDbEntity
  8
寸法線
100
AcDbCircle
 10
65.37288200282287
 20
59.49377666954665
 30
0.0
 40
0.3
100
AcDbArc
 50
225.0000000000001
 51
270.0
  0
ARC
  5
912
330
1F
100
AcDbEntity
  8
寸法線
100
AcDbCircle
 10
109.4486179341109
 20
60.39377666954664
 30
0.0
 40
0.3
100
AcDbArc
 50
0.0
 51
89.99999999999998
  0
ARC
  5
913
330
1F
100
AcDbEntity
  8
寸法線
100
AcDbCircle
 10
107.9486179341109
 20
58.89377666954666
 30
0.0
 40
0.3
100
AcDbArc
 50
0.0
 51
90.0
  0
ARC
  5
914
330
1F
100
AcDbEntity
  8
寸法線
100
AcDbCircle
 10
110.0486179341109
 20
18.4435746441913
 30
0.0
 40
0.3
100
AcDbArc
 50
180.0
 51
225.0000000000001
  0
ARC
  5
915
330
1F
100
AcDbEntity
  8
寸法線
100
AcDbCircle
 10
108.5486179341109
 20
17.82225430063165
 30
0.0
 40
0.3
100
AcDbArc
 50
180.0
 51
225.0000000000001
  0
ARC
  5
916
330
1F
100
AcDbEntity
  8
寸法線
100
AcDbCircle
 10
112.914353865399
 20
14.72931057547939
 30
0.0
 40
0.3
100
AcDbArc
 50
315.0
 51
45.00000000000009
  0
ARC
  5
917
330
1F
100
AcDbEntity
  8
寸法線
100
AcDbCircle
 10
110.7930335218394
 20
14.72931057547939
 30
0.0
 40
0.3
100
AcDbArc
 50
315.0000000000001
 51
45.00000000000008
  0
ARC
  5
918
330
1F
100
AcDbEntity
  8
寸法線
100
AcDbCircle
 10
109.8030840281782
 20
13.73936108181821
 30
0.0
 40
0.3
100
AcDbArc
 50
224.9999999999999
 51
315.0000000000001
  0
ARC
  5
919
330
1F
100
AcDbEntity
  8
寸法線
100
AcDbCircle
 10
108.3888704658051
 20
14.30504650676746
 30
0.0
 40
0.3
100
AcDbArc
 50
44.99999999999995
 51
135.0000000000002
  0
ARC
  5
91A
330
1F
100
AcDbEntity
  8
寸法線
100
AcDbCircle
 10
107.7524743627372
 20
13.66865040369956
 30
0.0
 40
0.3
100
AcDbArc
 50
135.0000000000001
 51
225.0000000000001
  0
ARC
  5
91B
330
1F
100
AcDbEntity
  8
寸法線
100
AcDbCircle
 10
109.8030840281782
 20
11.61804073825857
 30
0.0
 40
0.3
100
AcDbArc
 50
225.0000000000001
 51
315.0
  0
ENDSEC
  0
SECTION
  2
OBJECTS
  0
DICTIONARY
  5
C
330
0
100
AcDbDictionary
281
     1
  3
ACAD_CIP_PREVIOUS_PRODUCT_INFO
350
6B3
  3
ACAD_COLOR
350
698
  3
ACAD_GROUP
350
D
  3
ACAD_LAYOUT
350
1A
  3
ACAD_MATERIAL
350
666
  3
ACAD_MLEADERSTYLE
350
6AD
  3
ACAD_MLINESTYLE
350
17
  3
ACAD_PLOTSETTINGS
350
19
  3
ACAD_PLOTSTYLENAME
350
E
  3
ACAD_SCALELIST
350
69B
  3
ACAD_TABLESTYLE
350
699
  3
ACAD_VISUALSTYLE
350
67F
  3
ACDB_RECOMPOSE_DATA
350
933
  3
AcDbVariableDictionary
350
70B
  0
DICTIONARY
  5
6B8
330
2
100
AcDbDictionary
280
     1
281
     1
  3
ACAD_LAYERSTATES
360
6B9
  0
DICTIONARY
  5
6F4
330
10
100
AcDbDictionary
280
     1
281
     1
  3
ADSK_XREC_LAYER_RECONCILED
360
6F5
  0
DICTIONARY
  5
6F6
330
2F
100
AcDbDictionary
280
     1
281
     1
  3
ADSK_XREC_LAYER_RECONCILED
360
6F7
  0
DICTIONARY
  5
6F8
330
30
100
AcDbDictionary
280
     1
281
     1
  3
ADSK_XREC_LAYER_RECONCILED
360
6F9
  0
DICTIONARY
  5
6FA
330
31
100
AcDbDictionary
280
     1
281
     1
  3
ADSK_XREC_LAYER_RECONCILED
360
6FB
  0
DICTIONARY
  5
6FC
330
32
100
AcDbDictionary
280
     1
281
     1
  3
ADSK_XREC_LAYER_RECONCILED
360
6FD
  0
DICTIONARY
  5
6FE
330
33
100
AcDbDictionary
280
     1
281
     1
  3
ADSK_XREC_LAYER_RECONCILED
360
6FF
  0
DICTIONARY
  5
700
330
34
100
AcDbDictionary
280
     1
281
     1
  3
ADSK_XREC_LAYER_RECONCILED
360
701
  0
DICTIONARY
  5
781
330
1F
100
AcDbDictionary
280
     1
281
     1
  3
ACAD_SORTENTS
360
782
  0
XRECORD
  5
6B3
102
{ACAD_REACTORS
330
C
102
}
330
C
100
AcDbXrecord
280
     1
300
ACDLT
300
2012
300
ACDLT_F_S
  0
DICTIONARY
  5
698
102
{ACAD_REACTORS
330
C
102
}
330
C
100
AcDbDictionary
281
     1
  0
DICTIONARY
  5
D
102
{ACAD_REACTORS
330
C
102
}
330
C
100
AcDbDictionary
281
     1
  0
DICTIONARY
  5
1A
102
{ACAD_REACTORS
330
C
102
}
330
C
100
AcDbDictionary
281
     1
  3
Model
350
22
  3
レイアウト1
350
91D
  0
DICTIONARY
  5
666
102
{ACAD_REACTORS
330
C
102
}
330
C
100
AcDbDictionary
281
     1
  3
ByBlock
350
66F
  3
ByLayer
350
667
  3
Global
350
677
  0
DICTIONARY
  5
6AD
102
{ACAD_REACTORS
330
C
102
}
330
C
100
AcDbDictionary
281
     1
  3
Standard
350
6AE
  0
DICTIONARY
  5
17
102
{ACAD_REACTORS
330
C
102
}
330
C
100
AcDbDictionary
281
     1
  3
Standard
350
18
  0
DICTIONARY
  5
19
102
{ACAD_REACTORS
330
C
102
}
330
C
100
AcDbDictionary
281
     1
  0
ACDBDICTIONARYWDFLT
  5
E
102
{ACAD_REACTORS
330
C
102
}
330
C
100
AcDbDictionary
281
     1
  3
Normal
350
F
100
AcDbDictionaryWithDefault
340
F
  0
DICTIONARY
  5
69B
102
{ACAD_REACTORS
330
C
102
}
330
C
100
AcDbDictionary
281
     1
  3
A0
350
69C
  3
A1
350
69D
  3
A2
350
69E
  3
A3
350
69F
  3
A4
350
6A0
  3
A5
350
6A1
  3
A6
350
6A2
  3
A7
350
6A3
  3
A8
350
6A4
  3
A9
350
6A5
  3
B0
350
6A6
  3
B1
350
6A7
  3
B2
350
6A8
  3
B3
350
6A9
  3
B4
350
6AA
  3
B5
350
6AB
  3
B6
350
6AC
  0
DICTIONARY
  5
699
102
{ACAD_REACTORS
330
C
102
}
330
C
100
AcDbDictionary
281
     1
  3
Standard
350
69A
  0
DICTIONARY
  5
67F
102
{ACAD_REACTORS
330
C
102
}
330
C
100
AcDbDictionary
281
     1
  3
2dWireframe
350
685
  3
Basic
350
684
  3
Brighten
350
68B
  3
ColorChange
350
68F
  3
Conceptual
350
688
  3
Dim
350
68A
  3
EdgeColorOff
350
697
  3
Facepattern
350
68E
  3
Flat
350
680
  3
FlatWithEdges
350
681
  3
Gouraud
350
682
  3
GouraudWithEdges
350
683
  3
Hidden
350
687
  3
JitterOff
350
695
  3
Linepattern
350
68D
  3
OverhangOff
350
696
  3
Realistic
350
689
  3
Shaded
350
694
  3
Shaded with edges
350
693
  3
Shades of Gray
350
690
  3
Sketchy
350
691
  3
Thicken
350
68C
  3
Wireframe
350
686
  3
X-Ray
350
692
  0
XRECORD
  5
933
102
{ACAD_REACTORS
330
C
102
}
330
C
100
AcDbXrecord
280
     1
 90
        1
330
69A
  0
DICTIONARY
  5
70B
102
{ACAD_REACTORS
330
C
102
}
330
C
100
AcDbDictionary
281
     1
  3
CANNOSCALE
350
70F
  3
CMLEADERSTYLE
350
70D
  3
CTABLESTYLE
350
70C
  3
LAYEREVAL
350
711
  3
LAYERNOTIFY
350
712
  3
LIGHTINGUNITS
350
710
  3
MSLTSCALE
350
70E
  0
DICTIONARY
  5
6B9
102
{ACAD_REACTORS
330
6B8
102
}
330
6B8
100
AcDbDictionary
281
     1
  0
XRECORD
  5
6F5
102
{ACAD_REACTORS
330
6F4
102
}
330
6F4
100
AcDbXrecord
280
     1
290
     1
  0
XRECORD
  5
6F7
102
{ACAD_REACTORS
330
6F6
102
}
330
6F6
100
AcDbXrecord
280
     1
290
     1
  0
XRECORD
  5
6F9
102
{ACAD_REACTORS
330
6F8
102
}
330
6F8
100
AcDbXrecord
280
     1
290
     1
  0
XRECORD
  5
6FB
102
{ACAD_REACTORS
330
6FA
102
}
330
6FA
100
AcDbXrecord
280
     1
290
     1
  0
XRECORD
  5
6FD
102
{ACAD_REACTORS
330
6FC
102
}
330
6FC
100
AcDbXrecord
280
     1
290
     1
  0
XRECORD
  5
6FF
102
{ACAD_REACTORS
330
6FE
102
}
330
6FE
100
AcDbXrecord
280
     1
290
     1
  0
XRECORD
  5
701
102
{ACAD_REACTORS
330
700
102
}
330
700
100
AcDbXrecord
280
     1
290
     1
  0
SORTENTSTABLE
  5
782
102
{ACAD_REACTORS
330
781
102
}
330
781
100
AcDbSortentsTable
330
1F
331
76D
  5
77E
331
77E
  5
7A6
331
904
  5
760
331
915
  5
906
331
7A0
  5
905
331
908
  5
79F
331
919
  5
8B7
331
760
  5
76E
331
764
  5
776
331
775
  5
79B
331
7F5
  5
910
331
90C
  5
81F
331
910
  5
7F5
331
79B
  5
849
331
77D
  5
7A2
331
79F
  5
902
331
903
  5
764
331
81F
  5
913
331
914
  5
90C
331
8B7
  5
91A
331
918
  5
903
331
75F
  5
765
331
770
  5
789
331
8D5
  5
91B
331
907
  5
77A
331
7A3
  5
90B
331
8AA
  5
919
331
812
  5
912
331
763
  5
770
331
90B
  5
79E
331
7E7
  5
90F
331
90F
  5
79C
331
789
  5
804
331
849
  5
914
331
77C
  5
7A0
331
902
  5
76D
331
913
  5
90A
331
79E
  5
8D5
331
75E
  5
75F
331
76F
  5
780
331
906
  5
775
331
917
  5
904
331
7A2
  5
909
331
90A
  5
7A3
331
91B
  5
858
331
7D1
  5
90E
331
7A6
  5
90D
331
89C
  5
918
331
804
  5
911
331
90E
  5
7A1
331
912
  5
908
331
79D
  5
8AA
331
872
  5
917
331
75D
  5
75D
331
76E
  5
77F
331
77F
  5
7E7
331
905
  5
75E
331
916
  5
865
331
7A1
  5
907
331
865
  5
916
331
909
  5
76F
331
91A
  5
89C
331
858
  5
915
331
90D
  5
812
331
765
  5
77D
331
776
  5
79D
331
911
  5
7D1
331
79C
  5
872
  0
LAYOUT
  5
22
102
{ACAD_XDICTIONARY
360
6C7
102
}
102
{ACAD_REACTORS
330
1A
102
}
330
1A
100
AcDbPlotSettings
  1

  2
EPSON PM-770C
  4

  6

 40
0.0
 41
0.0
 42
0.0
 43
0.0
 44
0.0
 45
0.0
 46
0.0
 47
0.0
 48
0.0
 49
0.0
140
0.0
141
0.0
142
1.0
143
1.0
 70
  1712
 72
     0
 73
     0
 74
     0
  7

 75
     0
147
1.0
 76
     0
 77
     2
 78
   300
148
0.0
149
0.0
100
AcDbLayout
  1
Model
 70
     1
 71
     0
 10
0.0
 20
0.0
 11
12.0
 21
9.0
 12
0.0
 22
0.0
 32
0.0
 14
0.0
 24
0.0
 34
0.0
 15
0.0
 25
0.0
 35
0.0
146
0.0
 13
0.0
 23
0.0
 33
0.0
 16
1.0
 26
0.0
 36
0.0
 17
0.0
 27
1.0
 37
0.0
 76
     0
330
1F
331
664
  0
LAYOUT
  5
91D
102
{ACAD_REACTORS
330
1A
102
}
330
1A
100
AcDbPlotSettings
  1

  2
RISO Prioa LP6970DN KX
  4

  6

 40
0.0
 41
0.0
 42
0.0
 43
0.0
 44
0.0
 45
0.0
 46
0.0
 47
0.0
 48
0.0
 49
0.0
140
0.0
141
0.0
142
1.0
143
1.0
 70
   688
 72
     0
 73
     0
 74
     5
  7

 75
    16
147
1.0
 76
     0
 77
     2
 78
   300
148
0.0
149
0.0
100
AcDbLayout
  1
レイアウト1
 70
     1
 71
     1
 10
0.0
 20
0.0
 11
12.0
 21
9.0
 12
0.0
 22
0.0
 32
0.0
 14
0.0
 24
0.0
 34
0.0
 15
0.0
 25
0.0
 35
0.0
146
0.0
 13
0.0
 23
0.0
 33
0.0
 16
1.0
 26
0.0
 36
0.0
 17
0.0
 27
1.0
 37
0.0
 76
     0
330
91C
  0
MATERIAL
  5
66F
102
{ACAD_XDICTIONARY
360
670
102
}
102
{ACAD_REACTORS
330
666
102
}
330
666
100
AcDbMaterial
  1
ByBlock
 72
     0
 43
0.0008202099737533
 43
0.0
 43
0.0
 43
0.0
 43
0.0
 43
0.0008202099737533
 43
0.0
 43
0.0
 43
0.0
 43
0.0
 43
1.0
 43
0.0
 43
0.0
 43
0.0
 43
0.0
 43
1.0
 77
     0
 47
0.0008202099737533
 47
0.0
 47
0.0
 47
0.0
 47
0.0
 47
0.0008202099737533
 47
0.0
 47
0.0
 47
0.0
 47
0.0
 47
1.0
 47
0.0
 47
0.0
 47
0.0
 47
0.0
 47
1.0
171
     0
 49
0.0008202099737533
 49
0.0
 49
0.0
 49
0.0
 49
0.0
 49
0.0008202099737533
 49
0.0
 49
0.0
 49
0.0
 49
0.0
 49
1.0
 49
0.0
 49
0.0
 49
0.0
 49
0.0
 49
1.0
175
     0
142
0.0008202099737533
142
0.0
142
0.0
142
0.0
142
0.0
142
0.0008202099737533
142
0.0
142
0.0
142
0.0
142
0.0
142
1.0
142
0.0
142
0.0
142
0.0
142
0.0
142
1.0
179
     0
144
0.0008202099737533
144
0.0
144
0.0
144
0.0
144
0.0
144
0.0008202099737533
144
0.0
144
0.0
144
0.0
144
0.0
144
1.0
144
0.0
144
0.0
144
0.0
144
0.0
144
1.0
147
0.0008202099737533
147
0.0
147
0.0
147
0.0
147
0.0
147
0.0008202099737533
147
0.0
147
0.0
147
0.0
147
0.0
147
1.0
147
0.0
147
0.0
147
0.0
147
0.0
147
1.0
  0
MATERIAL
  5
667
102
{ACAD_XDICTIONARY
360
668
102
}
102
{ACAD_REACTORS
330
666
102
}
330
666
100
AcDbMaterial
  1
ByLayer
 72
     0
 43
0.0008202099737533
 43
0.0
 43
0.0
 43
0.0
 43
0.0
 43
0.0008202099737533
 43
0.0
 43
0.0
 43
0.0
 43
0.0
 43
1.0
 43
0.0
 43
0.0
 43
0.0
 43
0.0
 43
1.0
 77
     0
 47
0.0008202099737533
 47
0.0
 47
0.0
 47
0.0
 47
0.0
 47
0.0008202099737533
 47
0.0
 47
0.0
 47
0.0
 47
0.0
 47
1.0
 47
0.0
 47
0.0
 47
0.0
 47
0.0
 47
1.0
171
     0
 49
0.0008202099737533
 49
0.0
 49
0.0
 49
0.0
 49
0.0
 49
0.0008202099737533
 49
0.0
 49
0.0
 49
0.0
 49
0.0
 49
1.0
 49
0.0
 49
0.0
 49
0.0
 49
0.0
 49
1.0
175
     0
142
0.0008202099737533
142
0.0
142
0.0
142
0.0
142
0.0
142
0.0008202099737533
142
0.0
142
0.0
142
0.0
142
0.0
142
1.0
142
0.0
142
0.0
142
0.0
142
0.0
142
1.0
179
     0
144
0.0008202099737533
144
0.0
144
0.0
144
0.0
144
0.0
144
0.0008202099737533
144
0.0
144
0.0
144
0.0
144
0.0
144
1.0
144
0.0
144
0.0
144
0.0
144
0.0
144
1.0
147
0.0008202099737533
147
0.0
147
0.0
147
0.0
147
0.0
147
0.0008202099737533
147
0.0
147
0.0
147
0.0
147
0.0
147
1.0
147
0.0
147
0.0
147
0.0
147
0.0
147
1.0
  0
MATERIAL
  5
677
102
{ACAD_XDICTIONARY
360
678
102
}
102
{ACAD_REACTORS
330
666
102
}
330
666
100
AcDbMaterial
  1
Global
 72
     0
 43
0.0008202099737533
 43
0.0
 43
0.0
 43
0.0
 43
0.0
 43
0.0008202099737533
 43
0.0
 43
0.0
 43
0.0
 43
0.0
 43
1.0
 43
0.0
 43
0.0
 43
0.0
 43
0.0
 43
1.0
 77
     0
 47
0.0008202099737533
 47
0.0
 47
0.0
 47
0.0
 47
0.0
 47
0.0008202099737533
 47
0.0
 47
0.0
 47
0.0
 47
0.0
 47
1.0
 47
0.0
 47
0.0
 47
0.0
 47
0.0
 47
1.0
171
     0
 49
0.0008202099737533
 49
0.0
 49
0.0
 49
0.0
 49
0.0
 49
0.0008202099737533
 49
0.0
 49
0.0
 49
0.0
 49
0.0
 49
1.0
 49
0.0
 49
0.0
 49
0.0
 49
0.0
 49
1.0
175
     0
142
0.0008202099737533
142
0.0
142
0.0
142
0.0
142
0.0
142
0.0008202099737533
142
0.0
142
0.0
142
0.0
142
0.0
142
1.0
142
0.0
142
0.0
142
0.0
142
0.0
142
1.0
179
     0
144
0.0008202099737533
144
0.0
144
0.0
144
0.0
144
0.0
144
0.0008202099737533
144
0.0
144
0.0
144
0.0
144
0.0
144
1.0
144
0.0
144
0.0
144
0.0
144
0.0
144
1.0
147
0.0008202099737533
147
0.0
147
0.0
147
0.0
147
0.0
147
0.0008202099737533
147
0.0
147
0.0
147
0.0
147
0.0
147
1.0
147
0.0
147
0.0
147
0.0
147
0.0
147
1.0
  0
MLEADERSTYLE
  5
6AE
102
{ACAD_XDICTIONARY
360
931
102
}
102
{ACAD_REACTORS
330
6AD
102
}
330
6AD
100
AcDbMLeaderStyle
179
     2
170
     2
171
     1
172
     0
 90
        2
 40
0.0
 41
0.0
173
     1
 91
-1056964608
340
14
 92
       -2
290
     1
 42
2.0
291
     1
 43
0.36
  3
Standard
 44
4.0
300

342
11
174
     1
178
     6
175
     1
176
     0
 93
-1056964608
 45
4.0
292
     0
297
     0
 46
4.0
 94
-1056964608
 47
1.0
 49
1.0
140
1.0
293
     1
141
0.0
294
     1
177
     0
142
1.0
295
     0
296
     0
143
0.125
271
     0
272
     9
273
     9
  0
MLINESTYLE
  5
18
102
{ACAD_REACTORS
330
17
102
}
330
17
100
AcDbMlineStyle
  2
STANDARD
 70
     0
  3

 62
   256
 51
90.0
 52
90.0
 71
     2
 49
0.5
 62
   256
  6
BYLAYER
 49
-0.5
 62
   256
  6
BYLAYER
  0
ACDBPLACEHOLDER
  5
F
102
{ACAD_REACTORS
330
E
102
}
330
E
  0
SCALE
  5
69C
102
{ACAD_REACTORS
330
69B
102
}
330
69B
100
AcDbScale
 70
     0
300
1:1
140
1.0
141
1.0
290
     1
  0
SCALE
  5
69D
102
{ACAD_REACTORS
330
69B
102
}
330
69B
100
AcDbScale
 70
     0
300
1:2
140
1.0
141
2.0
290
     0
  0
SCALE
  5
69E
102
{ACAD_REACTORS
330
69B
102
}
330
69B
100
AcDbScale
 70
     0
300
1:4
140
1.0
141
4.0
290
     0
  0
SCALE
  5
69F
102
{ACAD_REACTORS
330
69B
102
}
330
69B
100
AcDbScale
 70
     0
300
1:5
140
1.0
141
5.0
290
     0
  0
SCALE
  5
6A0
102
{ACAD_REACTORS
330
69B
102
}
330
69B
100
AcDbScale
 70
     0
300
1:8
140
1.0
141
8.0
290
     0
  0
SCALE
  5
6A1
102
{ACAD_REACTORS
330
69B
102
}
330
69B
100
AcDbScale
 70
     0
300
1:10
140
1.0
141
10.0
290
     0
  0
SCALE
  5
6A2
102
{ACAD_REACTORS
330
69B
102
}
330
69B
100
AcDbScale
 70
     0
300
1:16
140
1.0
141
16.0
290
     0
  0
SCALE
  5
6A3
102
{ACAD_REACTORS
330
69B
102
}
330
69B
100
AcDbScale
 70
     0
300
1:20
140
1.0
141
20.0
290
     0
  0
SCALE
  5
6A4
102
{ACAD_REACTORS
330
69B
102
}
330
69B
100
AcDbScale
 70
     0
300
1:30
140
1.0
141
30.0
290
     0
  0
SCALE
  5
6A5
102
{ACAD_REACTORS
330
69B
102
}
330
69B
100
AcDbScale
 70
     0
300
1:40
140
1.0
141
40.0
290
     0
  0
SCALE
  5
6A6
102
{ACAD_REACTORS
330
69B
102
}
330
69B
100
AcDbScale
 70
     0
300
1:50
140
1.0
141
50.0
290
     0
  0
SCALE
  5
6A7
102
{ACAD_REACTORS
330
69B
102
}
330
69B
100
AcDbScale
 70
     0
300
1:100
140
1.0
141
100.0
290
     0
  0
SCALE
  5
6A8
102
{ACAD_REACTORS
330
69B
102
}
330
69B
100
AcDbScale
 70
     0
300
2:1
140
2.0
141
1.0
290
     0
  0
SCALE
  5
6A9
102
{ACAD_REACTORS
330
69B
102
}
330
69B
100
AcDbScale
 70
     0
300
4:1
140
4.0
141
1.0
290
     0
  0
SCALE
  5
6AA
102
{ACAD_REACTORS
330
69B
102
}
330
69B
100
AcDbScale
 70
     0
300
8:1
140
8.0
141
1.0
290
     0
  0
SCALE
  5
6AB
102
{ACAD_REACTORS
330
69B
102
}
330
69B
100
AcDbScale
 70
     0
300
10:1
140
10.0
141
1.0
290
     0
  0
SCALE
  5
6AC
102
{ACAD_REACTORS
330
69B
102
}
330
69B
100
AcDbScale
 70
     0
300
100:1
140
100.0
141
1.0
290
     0
  0
TABLESTYLE
  5
69A
102
{ACAD_XDICTIONARY
360
92F
102
}
102
{ACAD_REACTORS
330
699
102
}
330
699
100
AcDbTableStyle
280
     0
  3
Standard
 70
     0
 71
     0
 40
1.5
 41
1.5
280
     0
281
     0
  7
Standard
140
4.5
170
     2
 62
     0
 63
     7
283
     0
 90
      512
 91
        0
  1

274
    -2
284
     1
 64
     0
275
    -2
285
     1
 65
     0
276
    -2
286
     1
 66
     0
277
    -2
287
     1
 67
     0
278
    -2
288
     1
 68
     0
279
    -2
289
     1
 69
     0
  7
Standard
140
6.0
170
     5
 62
     0
 63
     7
283
     0
 90
      512
 91
        0
  1

274
    -2
284
     1
 64
     0
275
    -2
285
     1
 65
     0
276
    -2
286
     1
 66
     0
277
    -2
287
     1
 67
     0
278
    -2
288
     1
 68
     0
279
    -2
289
     1
 69
     0
  7
Standard
140
4.5
170
     5
 62
     0
 63
     7
283
     0
 90
      512
 91
        0
  1

274
    -2
284
     1
 64
     0
275
    -2
285
     1
 65
     0
276
    -2
286
     1
 66
     0
277
    -2
287
     1
 67
     0
278
    -2
288
     1
 68
     0
279
    -2
289
     1
 69
     0
  0
VISUALSTYLE
  5
685
102
{ACAD_REACTORS
330
67F
102
}
330
67F
100
AcDbVisualStyle
  2
2dWireframe
 70
     4
177
     2
291
     0
 71
     0
176
     1
 72
     2
176
     1
 73
     0
176
     1
 90
        0
176
     1
 40
0.6
176
     1
 41
30.0
176
     1
 63
     7
421
 16777215
176
     1
 74
     1
176
     1
 91
        4
176
     1
 64
     7
176
     1
 65
   257
176
     1
 75
     1
176
     1
175
     1
176
     1
 42
1.0
176
     1
 92
        0
176
     1
 66
   257
176
     1
 43
1.0
176
     1
 76
     1
176
     1
 77
     6
176
     1
 78
     2
176
     1
 67
     7
176
     1
 79
     5
176
     1
170
     0
176
     1
171
     0
176
     1
290
     0
176
     1
 93
        1
176
     1
 44
0.0
176
     1
173
     0
176
     1
  0
VISUALSTYLE
  5
684
102
{ACAD_REACTORS
330
67F
102
}
330
67F
100
AcDbVisualStyle
  2
Basic
 70
     7
177
     2
291
     1
 71
     1
176
     1
 72
     0
176
     1
 73
     1
176
     1
 90
        0
176
     1
 40
0.6
176
     1
 41
30.0
176
     1
 63
     7
421
 16777215
176
     1
 74
     0
176
     1
 91
        4
176
     1
 64
     7
176
     1
 65
   257
176
     1
 75
     1
176
     1
175
     1
176
     1
 42
1.0
176
     1
 92
        8
176
     1
 66
     7
176
     1
 43
1.0
176
     1
 76
     1
176
     1
 77
     6
176
     1
 78
     2
176
     1
 67
     7
176
     1
 79
     5
176
     1
170
     0
176
     1
171
     0
176
     1
290
     0
176
     1
 93
        1
176
     1
 44
0.0
176
     1
173
     0
176
     1
  0
VISUALSTYLE
  5
68B
102
{ACAD_REACTORS
330
67F
102
}
330
67F
100
AcDbVisualStyle
  2
Brighten
 70
    12
177
     2
291
     1
 71
     2
176
     1
 72
     2
176
     1
 73
     0
176
     1
 90
        0
176
     1
 40
0.6
176
     1
 41
30.0
176
     1
 63
     7
421
 16777215
176
     1
 74
     1
176
     1
 91
        4
176
     1
 64
     7
176
     1
 65
   257
176
     1
 75
     1
176
     1
175
     1
176
     1
 42
1.0
176
     1
 92
        8
176
     1
 66
     7
176
     1
 43
1.0
176
     1
 76
     1
176
     1
 77
     6
176
     1
 78
     2
176
     1
 67
     7
176
     1
 79
     5
176
     1
170
     0
176
     1
171
     0
176
     1
290
     0
176
     1
 93
        1
176
     1
 44
50.0
176
     1
173
     0
176
     1
  0
VISUALSTYLE
  5
68F
102
{ACAD_REACTORS
330
67F
102
}
330
67F
100
AcDbVisualStyle
  2
ColorChange
 70
    16
177
     2
291
     1
 71
     2
176
     1
 72
     2
176
     1
 73
     3
176
     1
 90
        0
176
     1
 40
0.6
176
     1
 41
30.0
176
     1
 63
     8
421
  8421504
176
     1
 74
     1
176
     1
 91
        4
176
     1
 64
     7
176
     1
 65
   257
176
     1
 75
     1
176
     1
175
     1
176
     1
 42
1.0
176
     1
 92
        8
176
     1
 66
     8
424
  8421504
176
     1
 43
1.0
176
     1
 76
     1
176
     1
 77
     6
176
     1
 78
     2
176
     1
 67
     7
176
     1
 79
     5
176
     1
170
     0
176
     1
171
     0
176
     1
290
     0
176
     1
 93
        1
176
     1
 44
0.0
176
     1
173
     0
176
     1
  0
VISUALSTYLE
  5
688
102
{ACAD_REACTORS
330
67F
102
}
330
67F
100
AcDbVisualStyle
  2
Conceptual
 70
     9
177
     2
291
     0
 71
     3
176
     1
 72
     2
176
     1
 73
     0
176
     1
 90
        0
176
     1
 40
0.6
176
     1
 41
30.0
176
     1
 63
     7
421
 16777215
176
     1
 74
     2
176
     1
 91
        2
176
     1
 64
     7
176
     1
 65
   257
176
     1
 75
     1
176
     1
175
     1
176
     1
 42
179.0
176
     1
 92
        8
176
     1
 66
     7
176
     1
 43
1.0
176
     1
 76
     1
176
     1
 77
     6
176
     1
 78
     2
176
     1
 67
     7
176
     1
 79
     3
176
     1
170
     0
176
     1
171
     0
176
     1
290
     0
176
     1
 93
        1
176
     1
 44
0.0
176
     1
173
     0
176
     1
  0
VISUALSTYLE
  5
68A
102
{ACAD_REACTORS
330
67F
102
}
330
67F
100
AcDbVisualStyle
  2
Dim
 70
    11
177
     2
291
     1
 71
     2
176
     1
 72
     2
176
     1
 73
     0
176
     1
 90
        0
176
     1
 40
0.6
176
     1
 41
30.0
176
     1
 63
     7
421
 16777215
176
     1
 74
     1
176
     1
 91
        4
176
     1
 64
     7
176
     1
 65
   257
176
     1
 75
     1
176
     1
175
     1
176
     1
 42
1.0
176
     1
 92
        8
176
     1
 66
     7
176
     1
 43
1.0
176
     1
 76
     1
176
     1
 77
     6
176
     1
 78
     2
176
     1
 67
     7
176
     1
 79
     5
176
     1
170
     0
176
     1
171
     0
176
     1
290
     0
176
     1
 93
        1
176
     1
 44
-50.0
176
     1
173
     0
176
     1
  0
VISUALSTYLE
  5
697
102
{ACAD_REACTORS
330
67F
102
}
330
67F
100
AcDbVisualStyle
  2
EdgeColorOff
 70
    22
177
     2
291
     1
 71
     2
176
     0
 72
     2
176
     0
 73
     0
176
     0
 90
        0
176
     0
 40
0.6
176
     0
 41
30.0
176
     0
 63
     7
421
 16777215
176
     0
 74
     1
176
     0
 91
        4
176
     0
 64
     7
176
     0
 65
   257
176
     0
 75
     1
176
     0
175
     1
176
     0
 42
1.0
176
     0
 92
        8
176
     2
 66
     7
176
     0
 43
1.0
176
     0
 76
     1
176
     0
 77
     6
176
     0
 78
     2
176
     0
 67
     7
176
     0
 79
     5
176
     0
170
     0
176
     0
171
     0
176
     0
290
     0
176
     0
 93
        1
176
     0
 44
0.0
176
     0
173
     0
176
     0
  0
VISUALSTYLE
  5
68E
102
{ACAD_REACTORS
330
67F
102
}
330
67F
100
AcDbVisualStyle
  2
Facepattern
 70
    15
177
     2
291
     1
 71
     2
176
     1
 72
     2
176
     1
 73
     0
176
     1
 90
        0
176
     1
 40
0.6
176
     1
 41
30.0
176
     1
 63
     7
421
 16777215
176
     1
 74
     1
176
     1
 91
        4
176
     1
 64
     7
176
     1
 65
   257
176
     1
 75
     1
176
     1
175
     1
176
     1
 42
1.0
176
     1
 92
        8
176
     1
 66
     7
176
     1
 43
1.0
176
     1
 76
     1
176
     1
 77
     6
176
     1
 78
     2
176
     1
 67
     7
176
     1
 79
     5
176
     1
170
     0
176
     1
171
     0
176
     1
290
     0
176
     1
 93
        1
176
     1
 44
0.0
176
     1
173
     0
176
     1
  0
VISUALSTYLE
  5
680
102
{ACAD_REACTORS
330
67F
102
}
330
67F
100
AcDbVisualStyle
  2
Flat
 70
     0
177
     2
291
     1
 71
     2
176
     1
 72
     1
176
     1
 73
     1
176
     1
 90
        2
176
     1
 40
0.6
176
     1
 41
30.0
176
     1
 63
     7
421
 16777215
176
     1
 74
     0
176
     1
 91
        0
176
     1
 64
     7
176
     1
 65
   257
176
     1
 75
     1
176
     1
175
     1
176
     1
 42
1.0
176
     1
 92
        8
176
     1
 66
     7
176
     1
 43
1.0
176
     1
 76
     1
176
     1
 77
     6
176
     1
 78
     2
176
     1
 67
     7
176
     1
 79
     5
176
     1
170
     0
176
     1
171
     0
176
     1
290
     0
176
     1
 93
       13
176
     1
 44
0.0
176
     1
173
     0
176
     1
  0
VISUALSTYLE
  5
681
102
{ACAD_REACTORS
330
67F
102
}
330
67F
100
AcDbVisualStyle
  2
FlatWithEdges
 70
     1
177
     2
291
     1
 71
     2
176
     1
 72
     1
176
     1
 73
     1
176
     1
 90
        2
176
     1
 40
0.6
176
     1
 41
30.0
176
     1
 63
     7
421
 16777215
176
     1
 74
     1
176
     1
 91
        0
176
     1
 64
     7
176
     1
 65
   257
176
     1
 75
     1
176
     1
175
     1
176
     1
 42
1.0
176
     1
 92
        0
176
     1
 66
   257
176
     1
 43
1.0
176
     1
 76
     1
176
     1
 77
     6
176
     1
 78
     2
176
     1
 67
     7
176
     1
 79
     5
176
     1
170
     0
176
     1
171
     0
176
     1
290
     0
176
     1
 93
       13
176
     1
 44
0.0
176
     1
173
     0
176
     1
  0
VISUALSTYLE
  5
682
102
{ACAD_REACTORS
330
67F
102
}
330
67F
100
AcDbVisualStyle
  2
Gouraud
 70
     2
177
     2
291
     1
 71
     2
176
     1
 72
     2
176
     1
 73
     1
176
     1
 90
        2
176
     1
 40
0.6
176
     1
 41
30.0
176
     1
 63
     7
421
 16777215
176
     1
 74
     0
176
     1
 91
        0
176
     1
 64
     7
176
     1
 65
   257
176
     1
 75
     1
176
     1
175
     1
176
     1
 42
1.0
176
     1
 92
        0
176
     1
 66
     7
176
     1
 43
1.0
176
     1
 76
     1
176
     1
 77
     6
176
     1
 78
     2
176
     1
 67
     7
176
     1
 79
     5
176
     1
170
     0
176
     1
171
     0
176
     1
290
     0
176
     1
 93
       13
176
     1
 44
0.0
176
     1
173
     0
176
     1
  0
VISUALSTYLE
  5
683
102
{ACAD_REACTORS
330
67F
102
}
330
67F
100
AcDbVisualStyle
  2
GouraudWithEdges
 70
     3
177
     2
291
     1
 71
     2
176
     1
 72
     2
176
     1
 73
     1
176
     1
 90
        2
176
     1
 40
0.6
176
     1
 41
30.0
176
     1
 63
     7
421
 16777215
176
     1
 74
     1
176
     1
 91
        0
176
     1
 64
     7
176
     1
 65
   257
176
     1
 75
     1
176
     1
175
     1
176
     1
 42
1.0
176
     1
 92
        0
176
     1
 66
   257
176
     1
 43
1.0
176
     1
 76
     1
176
     1
 77
     6
176
     1
 78
     2
176
     1
 67
     7
176
     1
 79
     5
176
     1
170
     0
176
     1
171
     0
176
     1
290
     0
176
     1
 93
       13
176
     1
 44
0.0
176
     1
173
     0
176
     1
  0
VISUALSTYLE
  5
687
102
{ACAD_REACTORS
330
67F
102
}
330
67F
100
AcDbVisualStyle
  2
Hidden
 70
     6
177
     2
291
     0
 71
     1
176
     1
 72
     2
176
     1
 73
     2
176
     1
 90
        0
176
     1
 40
0.6
176
     1
 41
30.0
176
     1
 63
     7
421
 16777215
176
     1
 74
     2
176
     1
 91
        2
176
     1
 64
     7
176
     1
 65
   257
176
     1
 75
     2
176
     1
175
     1
176
     1
 42
40.0
176
     1
 92
        0
176
     1
 66
   257
176
     1
 43
1.0
176
     1
 76
     1
176
     1
 77
     6
176
     1
 78
     2
176
     1
 67
     7
176
     1
 79
     3
176
     1
170
     0
176
     1
171
     0
176
     1
290
     0
176
     1
 93
        1
176
     1
 44
0.0
176
     1
173
     0
176
     1
  0
VISUALSTYLE
  5
695
102
{ACAD_REACTORS
330
67F
102
}
330
67F
100
AcDbVisualStyle
  2
JitterOff
 70
    20
177
     2
291
     1
 71
     2
176
     0
 72
     2
176
     0
 73
     0
176
     0
 90
        0
176
     0
 40
0.6
176
     0
 41
30.0
176
     0
 63
     7
421
 16777215
176
     0
 74
     1
176
     0
 91
        4
176
     0
 64
     7
176
     0
 65
   257
176
     0
 75
     1
176
     0
175
     1
176
     0
 42
1.0
176
     0
 92
       10
176
     2
 66
     7
176
     0
 43
1.0
176
     0
 76
     1
176
     0
 77
     6
176
     0
 78
     2
176
     0
 67
     7
176
     0
 79
     5
176
     0
170
     0
176
     0
171
     0
176
     0
290
     0
176
     0
 93
        1
176
     0
 44
0.0
176
     0
173
     0
176
     0
  0
VISUALSTYLE
  5
68D
102
{ACAD_REACTORS
330
67F
102
}
330
67F
100
AcDbVisualStyle
  2
Linepattern
 70
    14
177
     2
291
     1
 71
     2
176
     1
 72
     2
176
     1
 73
     0
176
     1
 90
        0
176
     1
 40
0.6
176
     1
 41
30.0
176
     1
 63
     7
421
 16777215
176
     1
 74
     1
176
     1
 91
        4
176
     1
 64
     7
176
     1
 65
   257
176
     1
 75
     7
176
     1
175
     7
176
     1
 42
1.0
176
     1
 92
        8
176
     1
 66
     7
176
     1
 43
1.0
176
     1
 76
     1
176
     1
 77
     6
176
     1
 78
     2
176
     1
 67
     7
176
     1
 79
     5
176
     1
170
     0
176
     1
171
     0
176
     1
290
     0
176
     1
 93
        1
176
     1
 44
0.0
176
     1
173
     0
176
     1
  0
VISUALSTYLE
  5
696
102
{ACAD_REACTORS
330
67F
102
}
330
67F
100
AcDbVisualStyle
  2
OverhangOff
 70
    21
177
     2
291
     1
 71
     2
176
     0
 72
     2
176
     0
 73
     0
176
     0
 90
        0
176
     0
 40
0.6
176
     0
 41
30.0
176
     0
 63
     7
421
 16777215
176
     0
 74
     1
176
     0
 91
        4
176
     0
 64
     7
176
     0
 65
   257
176
     0
 75
     1
176
     0
175
     1
176
     0
 42
1.0
176
     0
 92
        9
176
     2
 66
     7
176
     0
 43
1.0
176
     0
 76
     1
176
     0
 77
     6
176
     0
 78
     2
176
     0
 67
     7
176
     0
 79
     5
176
     0
170
     0
176
     0
171
     0
176
     0
290
     0
176
     0
 93
        1
176
     0
 44
0.0
176
     0
173
     0
176
     0
  0
VISUALSTYLE
  5
689
102
{ACAD_REACTORS
330
67F
102
}
330
67F
100
AcDbVisualStyle
  2
Realistic
 70
     8
177
     2
291
     0
 71
     2
176
     1
 72
     3
176
     1
 73
     0
176
     1
 90
        2
176
     1
 40
0.6
176
     1
 41
30.0
176
     1
 63
     7
421
 16777215
176
     1
 74
     0
176
     1
 91
        0
176
     1
 64
     7
176
     1
 65
   257
176
     1
 75
     1
176
     1
175
     1
176
     1
 42
1.0
176
     1
 92
        8
176
     1
 66
   257
176
     1
 43
1.0
176
     1
 76
     1
176
     1
 77
     6
176
     1
 78
     2
176
     1
 67
     7
176
     1
 79
     3
176
     1
170
     0
176
     1
171
     0
176
     1
290
     0
176
     1
 93
       13
176
     1
 44
0.0
176
     1
173
     0
176
     1
  0
VISUALSTYLE
  5
694
102
{ACAD_REACTORS
330
67F
102
}
330
67F
100
AcDbVisualStyle
  2
Shaded
 70
    27
177
     2
291
     0
 71
     2
176
     1
 72
     2
176
     1
 73
     1
176
     1
 90
        2
176
     1
 40
0.6
176
     1
 41
30.0
176
     1
 63
     7
421
 16777215
176
     1
 74
     0
176
     1
 91
        4
176
     1
 64
     7
176
     1
 65
   257
176
     1
 75
     1
176
     1
175
     1
176
     1
 42
1.0
176
     1
 92
        8
176
     1
 66
   257
176
     1
 43
1.0
176
     1
 76
     1
176
     1
 77
     6
176
     1
 78
     2
176
     1
 67
     8
425
  7895160
176
     1
 79
     3
176
     1
170
     0
176
     1
171
     0
176
     1
290
     0
176
     1
 93
        5
176
     1
 44
0.0
176
     1
173
     0
176
     1
  0
VISUALSTYLE
  5
693
102
{ACAD_REACTORS
330
67F
102
}
330
67F
100
AcDbVisualStyle
  2
Shaded with edges
 70
    26
177
     2
291
     0
 71
     2
176
     1
 72
     2
176
     1
 73
     1
176
     1
 90
        2
176
     1
 40
0.6
176
     1
 41
30.0
176
     1
 63
     7
421
 16777215
176
     1
 74
     1
176
     1
 91
       10
176
     1
 64
     7
176
     1
 65
   257
176
     1
 75
     2
176
     1
175
     1
176
     1
 42
1.0
176
     1
 92
        8
176
     1
 66
   257
176
     1
 43
1.0
176
     1
 76
     1
176
     1
 77
     6
176
     1
 78
     2
176
     1
 67
     7
176
     1
 79
     3
176
     1
170
     0
176
     1
171
     0
176
     1
290
     0
176
     1
 93
        5
176
     1
 44
0.0
176
     1
173
     0
176
     1
  0
VISUALSTYLE
  5
690
102
{ACAD_REACTORS
330
67F
102
}
330
67F
100
AcDbVisualStyle
  2
Shades of Gray
 70
    23
177
     2
291
     0
 71
     2
176
     1
 72
     2
176
     1
 73
     3
176
     1
 90
        0
176
     1
 40
0.6
176
     1
 41
30.0
176
     1
 63
     7
421
 16777215
176
     1
 74
     2
176
     1
 91
        2
176
     1
 64
     7
176
     1
 65
     7
176
     1
 75
     1
176
     1
175
     1
176
     1
 42
40.0
176
     1
 92
        8
176
     1
 66
     7
176
     1
 43
1.0
176
     1
 76
     1
176
     1
 77
     6
176
     1
 78
     2
176
     1
 67
     7
176
     1
 79
     3
176
     1
170
     0
176
     1
171
     0
176
     1
290
     0
176
     1
 93
        1
176
     1
 44
0.0
176
     1
173
     0
176
     1
  0
VISUALSTYLE
  5
691
102
{ACAD_REACTORS
330
67F
102
}
330
67F
100
AcDbVisualStyle
  2
Sketchy
 70
    24
177
     2
291
     0
 71
     1
176
     1
 72
     2
176
     1
 73
     2
176
     1
 90
        0
176
     1
 40
0.6
176
     1
 41
30.0
176
     1
 63
     7
421
 16777215
176
     1
 74
     2
176
     1
 91
        2
176
     1
 64
     7
176
     1
 65
     7
176
     1
 75
     1
176
     1
175
     1
176
     1
 42
40.0
176
     1
 92
       11
176
     1
 66
     7
176
     1
 43
1.0
176
     1
 76
     1
176
     1
 77
     6
176
     1
 78
     2
176
     1
 67
     7
176
     1
 79
     6
176
     1
170
     0
176
     1
171
     0
176
     1
290
     0
176
     1
 93
        1
176
     1
 44
0.0
176
     1
173
     0
176
     1
  0
VISUALSTYLE
  5
68C
102
{ACAD_REACTORS
330
67F
102
}
330
67F
100
AcDbVisualStyle
  2
Thicken
 70
    13
177
     2
291
     1
 71
     2
176
     1
 72
     2
176
     1
 73
     0
176
     1
 90
        0
176
     1
 40
0.6
176
     1
 41
30.0
176
     1
 63
     7
421
 16777215
176
     1
 74
     1
176
     1
 91
        4
176
     1
 64
     7
176
     1
 65
   257
176
     1
 75
     1
176
     1
175
     1
176
     1
 42
1.0
176
     1
 92
       12
176
     1
 66
     7
176
     1
 43
1.0
176
     1
 76
     1
176
     1
 77
     6
176
     1
 78
     2
176
     1
 67
     7
176
     1
 79
     5
176
     1
170
     0
176
     1
171
     0
176
     1
290
     0
176
     1
 93
        1
176
     1
 44
0.0
176
     1
173
     0
176
     1
  0
VISUALSTYLE
  5
686
102
{ACAD_REACTORS
330
67F
102
}
330
67F
100
AcDbVisualStyle
  2
Wireframe
 70
     5
177
     2
291
     0
 71
     0
176
     1
 72
     2
176
     1
 73
     0
176
     1
 90
        0
176
     1
 40
0.6
176
     1
 41
30.0
176
     1
 63
     7
421
 16777215
176
     1
 74
     1
176
     1
 91
        4
176
     1
 64
     7
176
     1
 65
   257
176
     1
 75
     1
176
     1
175
     1
176
     1
 42
1.0
176
     1
 92
        0
176
     1
 66
   257
176
     1
 43
1.0
176
     1
 76
     1
176
     1
 77
     6
176
     1
 78
     2
176
     1
 67
     7
176
     1
 79
     3
176
     1
170
     0
176
     1
171
     0
176
     1
290
     0
176
     1
 93
        1
176
     1
 44
0.0
176
     1
173
     0
176
     1
  0
VISUALSTYLE
  5
692
102
{ACAD_REACTORS
330
67F
102
}
330
67F
100
AcDbVisualStyle
  2
X-Ray
 70
    25
177
     2
291
     0
 71
     2
176
     1
 72
     2
176
     1
 73
     1
176
     1
 90
        1
176
     1
 40
0.5
176
     1
 41
30.0
176
     1
 63
     7
421
 16777215
176
     1
 74
     1
176
     1
 91
        0
176
     1
 64
     7
176
     1
 65
   257
176
     1
 75
     1
176
     1
175
     1
176
     1
 42
1.0
176
     1
 92
        8
176
     1
 66
     7
176
     1
 43
1.0
176
     1
 76
     1
176
     1
 77
     6
176
     1
 78
     2
176
     1
 67
     7
176
     1
 79
     3
176
     1
170
     0
176
     1
171
     0
176
     1
290
     0
176
     1
 93
       13
176
     1
 44
0.0
176
     1
173
     0
176
     1
  0
DICTIONARYVAR
  5
70F
102
{ACAD_REACTORS
330
70B
102
}
330
70B
100
DictionaryVariables
280
     0
  1
1:1
  0
DICTIONARYVAR
  5
70D
102
{ACAD_REACTORS
330
70B
102
}
330
70B
100
DictionaryVariables
280
     0
  1
STANDARD
  0
DICTIONARYVAR
  5
70C
102
{ACAD_REACTORS
330
70B
102
}
330
70B
100
DictionaryVariables
280
     0
  1
STANDARD
  0
DICTIONARYVAR
  5
711
102
{ACAD_REACTORS
330
70B
102
}
330
70B
100
DictionaryVariables
280
     0
  1
1
  0
DICTIONARYVAR
  5
712
102
{ACAD_REACTORS
330
70B
102
}
330
70B
100
DictionaryVariables
280
     0
  1
15
  0
DICTIONARYVAR
  5
710
102
{ACAD_REACTORS
330
70B
102
}
330
70B
100
DictionaryVariables
280
     0
  1
0
  0
DICTIONARYVAR
  5
70E
102
{ACAD_REACTORS
330
70B
102
}
330
70B
100
DictionaryVariables
280
     0
  1
0
  0
DICTIONARY
  5
6C7
330
22
100
AcDbDictionary
280
     1
281
     1
  3
ADSK_XREC_LAYOUTTHUMBNAIL
360
6C8
  0
DICTIONARY
  5
670
330
66F
100
AcDbDictionary
280
     1
281
     1
  3
BUMPTILE
360
672
  3
DIFFUSETILE
360
671
  3
OPACITYTILE
360
675
  3
REFLECTIONTILE
360
674
  3
REFRACTIONTILE
360
676
  3
SPECULARTILE
360
673
  0
DICTIONARY
  5
668
330
667
100
AcDbDictionary
280
     1
281
     1
  3
BUMPTILE
360
66A
  3
DIFFUSETILE
360
669
  3
OPACITYTILE
360
66D
  3
REFLECTIONTILE
360
66C
  3
REFRACTIONTILE
360
66E
  3
SPECULARTILE
360
66B
  0
DICTIONARY
  5
678
330
677
100
AcDbDictionary
280
     1
281
     1
  3
BUMPTILE
360
67A
  3
DIFFUSETILE
360
679
  3
OPACITYTILE
360
67D
  3
REFLECTIONTILE
360
67C
  3
REFRACTIONTILE
360
67E
  3
SPECULARTILE
360
67B
  0
DICTIONARY
  5
931
330
6AE
100
AcDbDictionary
280
     1
281
     1
  3
ACAD_XREC_ROUNDTRIP
360
932
  0
DICTIONARY
  5
92F
330
69A
100
AcDbDictionary
280
     1
281
     1
  3
ACAD_ROUNDTRIP_2008_TABLESTYLE_CELLSTYLEMAP
360
930
  0
XRECORD
  5
6C8
102
{ACAD_REACTORS
330
6C7
102
}
330
6C7
100
AcDbXrecord
280
     1
310
2800000000010000B5000000010008000000000000B50000000000000000000000010000000000003028210000000000C8C8C8000000000000000000000000000000000000000000000000000000000000000000330000006600000099000000CC000000FF00000000330000333300006633000099330000CC330000FF3300
310
0000660000336600006666000099660000CC660000FF66000000990000339900006699000099990000CC990000FF99000000CC000033CC000066CC000099CC0000CCCC0000FFCC000000FF000033FF000066FF000099FF0000CCFF0000FFFF000000003300330033006600330099003300CC003300FF003300003333003333
310
33006633330099333300CC333300FF33330000663300336633006666330099663300CC663300FF66330000993300339933006699330099993300CC993300FF99330000CC330033CC330066CC330099CC3300CCCC3300FFCC330000FF330033FF330066FF330099FF3300CCFF3300FFFF330000006600330066006600660099
310
006600CC006600FF00660000336600333366006633660099336600CC336600FF33660000666600336666006666660099666600CC666600FF66660000996600339966006699660099996600CC996600FF99660000CC660033CC660066CC660099CC6600CCCC6600FFCC660000FF660033FF660066FF660099FF6600CCFF6600
310
FFFF660000009900330099006600990099009900CC009900FF00990000339900333399006633990099339900CC339900FF33990000669900336699006666990099669900CC669900FF66990000999900339999006699990099999900CC999900FF99990000CC990033CC990066CC990099CC9900CCCC9900FFCC990000FF99
310
0033FF990066FF990099FF9900CCFF9900FFFF99000000CC003300CC006600CC009900CC00CC00CC00FF00CC000033CC003333CC006633CC009933CC00CC33CC00FF33CC000066CC003366CC006666CC009966CC00CC66CC00FF66CC000099CC003399CC006699CC009999CC00CC99CC00FF99CC0000CCCC0033CCCC0066CC
310
CC0099CCCC00CCCCCC00FFCCCC0000FFCC0033FFCC0066FFCC0099FFCC00CCFFCC00FFFFCC000000FF003300FF006600FF009900FF00CC00FF00FF00FF000033FF003333FF006633FF009933FF00CC33FF00FF33FF000066FF003366FF006666FF009966FF00CC66FF00FF66FF000099FF003399FF006699FF009999FF00CC
310
99FF00FF99FF0000CCFF0033CCFF0066CCFF0099CCFF00CCCCFF00FFCCFF0000FFFF0033FFFF0066FFFF0099FFFF00CCFFFF00FFFFFF00000000000D0D0D001A1A1A00282828003535350043434300505050005D5D5D006B6B6B00787878008686860093939300A1A1A100AEAEAE00BBBBBB00C9C9C900D6D6D600E4E4E400
310
F1F1F100FFFFFF000000000000000000000000000000000000000000000000000000000000000000000000000000000000000000000000000000000000000000000000000000000000000000000000000000000000000000000000000000000000000000000000000000000000000000000000000000000000000000000000
310
00000000000000000000000000000000000000000000000000000000000000000000000000000000000000000000000000000000000000000000000000000000000000000000000000000000000000000000000000000000000000000000000000000000000000000000000000000000000000000000000000000000000000
310
00000000000000000000000000000000000000000000000000000000000000000000000000000000000000000000000000000000000000000000000000000000000000000000000000000000000000000000000000000000000000000000000000000000000000000000000000000000000000000000000000000000000000
310
00000000000000000000000000000000000000000000000000000000000000000000000000000000000000000000000000000000000000000000000000000000000000000000000000000000000000000000000000000000000000000000000000000000000000000000000000000000000000000000000000000000000000
310
00000000000000000000000000000000000000000000000000000000000000000000000000000000000000000000000000000000000000000000000000000000000000000000000000000000000000000000000000000000000000000000000000000000000000000000000000000000000000000000000000000000000000
310
00000000000000000000000000000000000000000000000000000000000000000000000000000000000000000000000000000000000000000000000000000000000000000000000000000000000000000000000000000000000000000000000000000000000000000000000000000000000000000000000000000000000000
310
00000000000000000000000000000000000000000000000000000000000000000000000000000000000000000000000000000000000000000000000000000000000000000000000000000000000000000000000000000000000000000000000000000000000000000000000000000000000000000000000000000000000000
310
00000000000000000000000000000000000000000000000000000000000000000000000000000000000000000000000000000000000000000000000000000000000000000000000000000000000000000000000000000000000000000000000000000000000000000000000000000000000000000000000000000000000000
310
00000000000000000000000000000000000000000000000000000000000000000000000000000000000000000000000000000000000000000000000000000000000000000000000000000000000000000000000000000000000000000000000000000000000000000000000000000000000000000000000000000000000000
310
00000000000000000000000000000000000000000000000000000000000000000000000000000000000000000000000000000000000000000000000000000000000000000000000000000000000000000000000000000000000000000000000000000000000000000000000000000000000000000000000000000000000000
310
00000000000000000000000000000000000000000000000000000000000000000000000000000000000000000000000000000000000000000000000000000000000000000000000000000000000000000000000000000000000000000000000000000000000000000000000000000000000000000000000000000000000000
310
00000000000000000000000000000000000000000000000000000000000000000000000000000000000000000000000000000000000000000000000000000000000000000000000000000000000000000000000000000000000000000000000000000000000000000000000000000000000000000000000000000000000000
310
00000000000000000000000000000000000000000000000000000000000000000000000000000000000000000000000000000000000000000000000000000000000000000000000000000000000000000000000000000000000000000000000000000000000000000000000000000000000000000000000000000000000000
310
00000000000000000000000000000000000000000000000000000000000000000000000000000000000000000000000000000000000000000000000000000000000000000000000000000000000000000000000000000000000000000000000000000000000000000000000000000000000000000000000000000000000000
310
00000000000000000000000000000000000000000000000000000000000000000000000000000000000000000000000000000000000000000000000000000000000000000000000000000000000000000000000000000000000000000000000000000000000000000000000000000000000000000000000000000000000000
310
00000000000000000000000000000000000000000000000000000000000000000000000000000000000000000000000000000000000000000000000000000000000000000000000000000000000000000000000000000000000000000000000000000000000000000000000000000000000000000000000000000000000000
310
00000000000000000000000000000000000000000000000000000000000000000000000000000000000000000000000000000000000000000000000000000000000000000000000000000000000000000000000000000000000000000000000000000000000000000000000000000000000000000000000000000000000000
310
00000000000000000000000000000000000000000000000000000000000000000000000000000000000000000000000000000000000000000000000000000000000000000000000000000000000000000000000000000000000000000000000000000000000000000000000000000000000000000000000000000000000000
310
00000000000000000000000000000000000000000000000000000000000000000000000000000000000000000000000000000000000000000000000000000000000000000000000000000000000000000000000000000000000000000000000000000000000000000000000000000000000000000000000000000000000000
310
00000000000000000000000000000000000000000000000000000000000000000000000000000000000000000000000000000000000000000000000000000000000000000000000000000000000000000000000000000000000000000000000000000000000000000000000000000000000000000000000000000000000000
310
00000000000000000000000000000000000000000000000000000000000000000000000000000000000000000000000000000000000000000000000000000000000000000000000000000000000000000000000000000000000000000000000000000000000000000000000000000000000000000000000000000000000000
310
00000000000000000000000000000000000000000000000000000000000000000000000000000000000000000000000000000000000000000000000000000000000000000000000000000000000000000000000000000000000000000000000000000000000000000000000000000000000000000000000000000000000000
310
00000000000000000000000000000000000000000000000000000000000000000000000000000000000000000000000000000000000000000000000000000000000000000000000000000000000000000000000000000000000000000000000000000000000000000000000000000000000000000000000000000000000000
310
00000000000000000000000000000000000000000000000000000000000000000000000000000000000000000000000000000000000000000000000000000000000000000000000000000000000000000000000000000000000000000000000000000000000000000000000000000000000000000000000000000000000000
310
00000000000000000000000000000000000000000000000000000000000000000000000000000000000000000000000000000000000000000000000000000000000000000000000000000000000000000000000000000000000000000000000000000000000000000000000000000000000000000000000000000000000000
310
00000000000000000000000000000000000000000000000000000000000000000000000000000000000000000000000000000000000000000000000000000000000000000000000000000000000000000000000000000000000000000000000000000000000000000000000000000000000000000000000000000000000000
310
00000000000000000000000000000000000000000000000000000000000000000000000000000000000000000000000000000000000000000000000000000000000000000000000000000000000000000000000000000000000000000000000000000000000000000000000000000000000000000000000000000000000000
310
00000000000000000000000000000000000000000000000000000000000000000000000000000000000000000000000000000000000000000000000000000000000000000000000000000000000000000000000000000000000000000000000000000000000000000000000000000000000000000000000000000000000000
310
00000000000000000000000000000000000000000000000000000000000000000000000000000000000000000000000000000000000000000000000000000000000000000000000000000000000000000000000000000000000000000000000000000000000000000000000000000000000000000000000000000000000000
310
00000000000000000000000000000000000000000000000000000000000000000000000000000000000000000000000000000000000000000000000000000000000000000000000000000000000000000000000000000000000000000000000000000000000000000000000000000000000000000000000000000000000000
310
00000000000000000000000000000000000000000000000000000000000000000000000000000000000000000000000000000000000000000000000000000000000000000000000000000000000000000000000000000000000000000000000000000000000000000000000000000000000000000000000000000000000000
310
00000000000000000000000000000000000000000000000000000000000000000000000000000000000000000000000000000000000000000000000000000000000000000000000000000000000000000000000000000000000000000000000000000000000000000000000000000000000000000000000000000000000000
310
00000000000000000000000000000000000000000000000000000000000000000000000000000000000000000000000000000000000000000000000000000000000000000000000000000000000000000000000000000000000000000000000000000000000000000000000000000000000000000000000000000000000000
310
00000000000000000000000000000000000000000000000000000000000000000000000000000000000000000000000000000000000000000000000000000000000000000000000000000000000000000000000000000000000000000000000000000000000000000000000000000000000000000000000000000000000000
310
00000000000000000000000000000000000000000000000000000000000000000000000000000000000000000000000000000000000000000000000000000000000000000000000000000000000000000000000000000000000000000000000000000000000000000000000000000000000000000000000000000000000000
310
00000000000000000000000000000000000000000000000000000000000000000000000000000000000000000000000000000000000000000000000000000000000000000000000000000000000000000000000000000000000000000000000000000000000000000000000000000000000000000000000000000000000000
310
00000000000000000000000000000000000000000000000000000000000000000000000000000000000000000000000000000000000000000000000000000000000000000000000000000000000000000000000000000000000000000000000000000000000000000000000000000000000000000000000000000000000000
310
00000000000000000000000000000000000000000000000000000000000000000000000000000000000000000000000000000000000000000000000000000000000000000000000000000000000000000000000000000000000000000000000000000000000000000000000000000000000000000000000000000000000000
310
00000000000000000000000000000000000000000000000000000000000000000000000000000000000000000000000000000000000000000000000000000000000000000000000000000000000000000000000000000000000000000000000000000000000000000000000000000000000000000000000000000000000000
310
00000000000000000000000000000000000000000000000000000000000000000000000000000000000000000000000000000000000000000000000000000000000000000000000000000000000000000000000000000000000000000000000000000000000000000000000000000000000000000000000000000000000000
310
00000000000000000000000000000000000000000000000000000000000000000000000000000000000000000000000000000000000000000000000000000000000000000000000000000000000000000000000000000000000000000000000000000000000000000000000000000000000000000000000000000000000000
310
00000000000000000000000000000000000000000000000000000000000000000000000000000000000000000000000000000000000000000000000000000000000000000000000000000000000000000000000000000000000000000000000000000000000000000000000000000000000000000000000000000000000000
310
000000000000000000000000000000000000F5000000000000000000000000000000000000000000000000000000000000000000000000000000000000000000000000000000000000000000000000000000000000000000000000000000000000000000000000000000000000000000000000000000000000000000000000
310
00000000000000000000000000000000000000000000000000000000000000000000000000000000000000000000000000000000000000000000000000000000000000000000000000000000000000000000000000000000000000000000000000000000000000000000000000000000000000000000000000000000000000
310
00000000000000000000000000000000000000F50000000000000000000000000000000000000000000000000000000000000000000000000000000000000000000000000000000000000000000000000000000000000000000000000000000000000000000000000000000000000000000000000000000000000000000000
310
00000000000000000000000000000000000000000000000000000000000000000000000000000000000000000000000000000000000000000000000000000000000000000000000000000000000000000000000000000000000000000000000000000000000000000000000000000000000000000000000000000000000000
310
0000000000000000000000000000000000000000F5F5F50000000000000000000000000000000000000000000000000000000000000000000000000000000000000000000000000000000000000000000000000000000000000000000000000000000000000000000000000000000000000000000000000000000000000000
310
00000000000000000000000000000000000000000000000000000000000000000000000000000000000000000000000000000000000000000000000000000000000000000000000000000000000000000000000000000000000000000000000000000000000000000000000000000000000000000000000000000000000000
310
000000000000000000000000000000000000000000F5000000F50000000000000000000000000000000000000000000000000000000000000000000000000000000000000000000000000000000000000000000000000000000000000000000000000000000000000000000000000000000000000000000000000000000000
310
00000000000000000000000000000000000000000000000000000000000000000000000000000000000000000000000000000000000000000000000000000000000000000000000000000000000000000000000000000000000000000000000000000000000000000000000000000000000000000000000000000000000000
310
00000000000000000000000000000000000000000000F500000000F5000000000000000000000000000000000000000000000000000000000000000000000000000000000000000000000000000000000000000000000000000000000000000000000000000000000000000000000000000000000000000000000000000000
310
00000000000000000000000000000000000000000000000000000000000000000000000000000000000000000000000000000000000000000000000000000000000000000000000000000000000000000000000000000000000000000000000000000000000000000000000000000000000000000000000000000000000000
310
0000000000000000000000000000000000000000000000F5000000000000F5000000000000000000000000000000000000000000000000000000000000000000000000000000000000000000000000000000000000000000000000000000000000000000000000000000000000000000000000000000000000000000000000
310
00000000000000000000000000000000000000000000000000000000000000000000000000000000000000000000000000000000000000000000000000000000000000000000000000000000000000000000000000000000000000000000000000000000000000000000000000000000000000000000000000000000000000
310
000000000000000000000000000000000000000000000000F50000000000000000F5000000000000000000000000000000000000000000000000000000000000000000000000000000000000000000000000000000000000000000000000000000000000000000000000000000000000000000000000000000000000000000
310
00000000000000000000000000000000000000000000000000000000000000000000000000000000000000000000000000000000000000000000000000000000000000000000000000000000000000000000000000000000000000000000000000000000000000000000000000000000000000000000000000000000000000
310
0000000000000000000000000000000000000000000000000000F5000000000000000000F5000000000000000000000000000000000000000000000000000000000000000000000000000000000000000000000000000000000000000000000000000000000000000000000000000000000000000000000000000000000000
310
00000000000000000000000000000000000000000000000000000000000000000000000000000000000000000000000000000000000000000000000000000000000000000000000000000000000000000000000000000000000000000000000000000000000000000000000000000000000000000000000000000000000000
310
0000000000000000F5000000F50000000000000000000000000000F50000000000000000000000F5000000000000000000000000000000000000000000000000000000000000000000000000000000000000000000000000000000000000000000000000000000000000000000000000000000000000000000000000000000
310
00000000000000000000000000000000000000000000000000000000000000000000000000000000000000000000000000000000000000000000000000000000000000000000000000000000000000000000000000000000000000000000000000000000000000000000000000000000000000000000000000000000000000
310
00000000000000000000F5000000F500000000000000000000000000F5000000000000000000000000F500000000000000000000000000000000000000000000000000000000000000000000000000000000000000000000000000000000000000000000000000000000000000000000000000000000000000000000000000
310
00000000000000000000000000000000000000000000000000000000000000000000000000000000000000000000000000000000000000000000000000000000000000000000000000000000000000000000000000000000000000000000000000000000000000000000000000000000000000000000000000000000000000
310
0000F5F5F5F5F5F5F5F5F5F5F5F5F5F5F5000000000000000000000000F5000000000000000000000000F500F500000000000000000000000000000000000000000000000000000000000000000000000000000000000000000000000000000000000000000000000000000000000000000000000000000000000000000000
310
00000000000000000000000000000000000000000000000000000000000000000000000000000000000000000000000000000000000000000000000000000000000000000000000000000000000000000000000000000000000000000000000000000000000000000000000000000000000000000000000000000000000000
310
0000000000F5F5000000F5F5F5F5F5000000F50000000000000000000000F500000000000000000000000000F5F5F50000000000000000000000000000000000000000000000000000000000000000000000000000000000000000000000000000000000000000000000000000000000000000000000000000000000000000
310
00000000000000000000000000000000000000000000000000000000000000000000000000000000000000000000000000000000000000000000000000000000000000000000000000000000000000000000000000000000000000000000000000000000000000000000000000000000000000000000000000000000000000
310
000000000000F500F500F5F50000F500F5000000F500000000000000000000F500000000000000000000000000F5F5F500F50000000000000000000000000000000000000000000000000000000000000000000000000000000000000000000000000000000000000000000000000000000000000000000000000000000000
310
00000000000000000000000000000000000000000000000000000000000000000000000000000000000000000000000000000000000000000000000000000000000000000000000000000000000000000000000000000000000000000000000000000000000000000000000000000000000000000000000000000000000000
310
0000000000F5000000F5F500F5F5F500F500F5000000F50000000000000000F5F500000000000000000000000000000000F5F5F5000000000000000000000000000000000000000000000000000000000000000000000000000000000000000000000000000000000000000000000000000000000000000000000000000000
310
00000000000000000000000000000000000000000000000000000000000000000000000000000000000000000000000000000000000000000000000000000000000000000000000000000000000000000000000000000000000000000000000000000000000000000000000000000000000000000000000000000000000000
310
0000000000000000F50000000000000000000000F5000000F500000000000000F50000000000000000000000000000000000F5F500F5F5000000000000000000000000000000000000000000000000000000000000000000000000000000000000000000000000000000000000000000000000000000000000000000000000
310
00000000000000000000000000000000000000000000000000000000000000000000000000000000000000000000000000000000000000000000000000000000000000000000000000000000000000000000000000000000000000000000000000000000000000000000000000000000000000000000000000000000000000
310
000000000000000000F5F5F500000000000000000000F5000000F5000000000000F5F5F500000000000000000000000000000000F5F5F500F500000000000000000000000000000000000000000000000000000000000000000000000000000000000000000000000000000000000000000000000000000000000000000000
310
00000000000000000000000000000000000000000000000000000000000000000000000000000000000000000000000000000000000000000000000000000000000000000000000000000000000000000000000000000000000000000000000000000000000000000000000000000000000000000000000000000000000000
310
0000000000000000F500F5000000F5000000000000000000F5000000F50000000000F50000F5F500000000000000000000000000000000F5F500F50000000000000000000000000000000000000000000000000000000000000000000000000000000000000000000000000000000000000000000000000000000000000000
310
00000000000000000000000000000000000000000000000000000000000000000000000000000000000000000000000000000000000000000000000000000000000000000000000000000000000000000000000000000000000000000000000000000000000000000000000000000000000000000000000000000000000000
310
0000000000000000000000F50000000000F50000000000000000F5000000F500000000F50000F500F5F500F500000000000000000000000000F5F500F5000000000000000000000000000000000000000000000000000000000000000000000000000000000000000000000000000000000000000000000000000000000000
310
00000000000000000000000000000000000000000000000000000000000000000000000000000000000000000000000000000000000000000000000000000000000000000000000000000000000000000000000000000000000000000000000000000000000000000000000000000000000000000000000000000000000000
310
000000000000000000000000F500F50000000000F500000000000000F5000000F5000000F50000F500F5F500F50000000000000000000000000000000000F500000000000000000000000000000000000000000000000000000000000000000000000000000000000000000000000000000000000000000000000000000000
310
00000000000000000000000000000000000000000000000000000000000000000000000000000000000000000000000000000000000000000000000000000000000000000000000000000000000000000000000000000000000000000000000000000000000000000000000000000000000000000000000000000000000000
310
00000000000000000000000000F5F5F500F50000000000F5000000000000F5000000F50000F500000000F5F500F5F5000000000000000000000000000000000000F500000000000000000000000000000000000000000000000000000000000000000000000000000000000000000000000000000000000000000000000000
310
00000000000000000000000000000000000000000000000000000000000000000000000000000000000000000000000000000000000000000000000000000000000000000000000000000000000000000000000000000000000000000000000000000000000000000000000000000000000000000000000000000000000000
310
000000000000000000000000000000F5F500F500F50000000000F50000000000F5000000F50000F5000000000000F50000000000000000000000000000000000000000F50000000000000000000000000000000000000000000000000000000000000000000000000000000000000000000000000000000000000000000000
310
00000000000000000000000000000000000000000000000000000000000000000000000000000000000000000000000000000000000000000000000000000000000000000000000000000000000000000000000000000000000000000000000000000000000000000000000000000000000000000000000000000000000000
310
00000000000000000000000000000000F5F500F500F500F50000000000F500000000F5000000F500F5000000000000F5000000000000000000000000000000000000000000F5000000000000000000000000000000000000000000000000000000000000000000000000000000000000000000000000000000000000000000
310
00000000000000000000000000000000000000000000000000000000000000000000000000000000000000000000000000000000000000000000000000000000000000000000000000000000000000000000000000000000000000000000000000000000000000000000000000000000000000000000000000000000000000
310
0000000000000000000000000000000000F5F5F500F5F5000000F50000000000F5000000F5000000F5F5000000000000F500000000000000000000000000000000000000000000F500000000000000000000000000000000000000000000000000000000000000000000000000000000000000000000000000000000000000
310
00000000000000000000000000000000000000000000000000000000000000000000000000000000000000000000000000000000000000000000000000000000000000000000000000000000000000000000000000000000000000000000000000000000000000000000000000000000000000000000000000000000000000
310
000000000000000000000000000000000000F5F5F5F5F5000000000000F50000000000F50000F5000000F5000000000000F50000000000000000000000000000000000000000000000F50000000000000000000000000000000000000000000000000000000000000000000000000000000000000000000000000000000000
310
00000000000000000000000000000000000000000000000000000000000000000000000000000000000000000000000000000000000000000000000000000000000000000000000000000000000000000000000000000000000000000000000000000000000000000000000000000000000000000000000000000000000000
310
00000000000000000000000000000000000000000000F5F5F500000000000000F50000000000F500F50000F5F5000000000000F50000000000000000000000000000000000000000000000F5000000000000000000000000000000000000000000000000000000000000000000000000000000000000000000000000000000
310
00000000000000000000000000000000000000000000000000000000000000000000000000000000000000000000000000000000000000000000000000000000000000000000000000000000000000000000000000000000000000000000000000000000000000000000000000000000000000000000000000000000000000
310
0000000000000000000000000000000000000000000000000000000000000000000000F50000000000F5F500F500F50000000000F5000000000000000000000000000000000000000000000000F500000000000000000000000000000000000000000000000000000000000000000000000000000000000000000000000000
310
00000000000000000000000000000000000000000000000000000000000000000000000000000000000000000000000000000000000000000000000000000000000000000000000000000000000000000000000000000000000000000000000000000000000000000000000000000000000000000000000000000000000000
310
0000000000000000000000000000000000000000000000000000000000000000000000000000F50000000000F5F5F5F5F5F5F5F5F5F5F5F5F5F5F5F5F5F5F5F5F5F5F5F5F5F5F5F5F5F5F5F5F5F5F5F5F5F5000000000000000000000000000000000000000000000000000000000000000000000000000000000000000000
310
00000000000000000000000000000000000000000000000000000000000000000000000000000000000000000000000000000000000000000000000000000000000000000000000000000000000000000000000000000000000000000000000000000000000000000000000000000000000000000000000000000000000000
310
0000000000000000000000000000000000000000000000000000000000000000000000000000000000F500000000F5000000F5000000F50000000000000000F50000000000000000000000000000000000F5000000000000000000000000000000000000000000000000000000000000000000000000000000000000000000
310
00000000000000000000000000000000000000000000000000000000000000000000000000000000000000000000000000000000000000000000000000000000000000000000000000000000000000000000000000000000000000000000000000000000000000000000000000000000000000000000000000000000000000
310
0000000000000000000000000000000000000000000000000000000000000000000000000000000000000000F50000F500F5F500F50000F5000000000000000000F50000000000000000000000000000000000F500000000000000000000000000000000000000000000000000000000000000000000000000000000000000
310
00000000000000000000000000000000000000000000000000000000000000000000000000000000000000000000000000000000000000000000000000000000000000000000000000000000000000000000000000000000000000000000000000000000000000000000000000000000000000000000000000000000000000
310
0000000000000000000000000000000000000000000000000000000000000000000000000000000000000000000000F5F500F50000F5F500F500000000000000000000F50000000000000000000000000000000000F50000000000000000000000000000000000000000000000000000000000000000000000000000000000
310
00000000000000000000000000000000000000000000000000000000000000000000000000000000000000000000000000000000000000000000000000000000000000000000000000000000000000000000000000000000000000000000000000000000000000000000000000000000000000000000000000000000000000
310
0000000000000000000000000000000000000000000000000000000000000000000000000000000000000000000000000000F5F500F5F500F5F50000000000000000000000F50000000000000000000000000000000000F5000000000000000000000000000000000000000000000000000000000000000000000000000000
310
00000000000000000000000000000000000000000000000000000000000000000000000000000000000000000000000000000000000000000000000000000000000000000000000000000000000000000000000000000000000000000000000000000000000000000000000000000000000000000000000000000000000000
310
00000000000000000000000000000000000000000000000000000000000000000000000000000000000000000000000000000000000000F50000F5000000000000000000000000F50000000000000000000000000000000000F500000000000000000000000000000000000000000000000000000000000000000000000000
310
00000000000000000000000000000000000000000000000000000000000000000000000000000000000000000000000000000000000000000000000000000000000000000000000000000000000000000000000000000000000000000000000000000000000000000000000000000000000000000000000000000000000000
310
0000000000000000000000000000000000000000000000000000000000000000000000000000000000000000000000000000000000000000F50000F5F5000000000000000000000000F50000000000000000000000000000000000F50000000000000000000000000000000000000000000000000000000000000000000000
310
00000000000000000000000000000000000000000000000000000000000000000000000000000000000000000000000000000000000000000000000000000000000000000000000000000000000000000000000000000000000000000000000000000000000000000000000000000000000000000000000000000000000000
310
000000000000000000000000000000000000000000000000000000000000000000000000000000000000000000000000000000000000000000F500F5F500F5000000000000000000000000F50000000000000000000000000000000000F5000000000000000000000000000000000000000000000000000000000000000000
310
00000000000000000000000000000000000000000000000000000000000000000000000000000000000000000000000000000000000000000000000000000000000000000000000000000000000000000000000000000000000000000000000000000000000000000000000000000000000000000000000000000000000000
310
00000000000000000000000000000000000000000000000000000000000000000000000000000000000000000000000000000000000000000000F500F5000000F5000000000000000000000000F50000000000000000000000000000000000F500000000000000000000000000000000000000000000000000000000000000
310
00000000000000000000000000000000000000000000000000000000000000000000000000000000000000000000000000000000000000000000000000000000000000000000000000000000000000000000000000000000000000000000000000000000000000000000000000000000000000000000000000000000000000
310
000000000000000000000000000000000000000000000000000000000000000000000000000000000000000000000000000000000000000000000000F500F5000000F5000000000000000000000000F50000000000000000000000000000000000F50000000000000000000000000000000000000000000000000000000000
310
00000000000000000000000000000000000000000000000000000000000000000000000000000000000000000000000000000000000000000000000000000000000000000000000000000000000000000000000000000000000000000000000000000000000000000000000000000000000000000000000000000000000000
310
0000000000000000000000000000000000000000000000000000000000000000000000000000000000000000000000000000000000000000000000000000F500F5000000F5000000000000000000000000F50000000000000000000000000000000000F5000000000000000000000000000000000000000000000000000000
310
00000000000000000000000000000000000000000000000000000000000000000000000000000000000000000000000000000000000000000000000000000000000000000000000000000000000000000000000000000000000000000000000000000000000000000000000000000000000000000000000000000000000000
310
00000000000000000000000000000000000000000000000000000000000000000000000000000000000000000000000000000000000000000000000000000000F500F5000000F5000000000000000000000000F50000000000000000000000000000000000F500000000000000000000000000000000000000000000000000
310
00000000000000000000000000000000000000000000000000000000000000000000000000000000000000000000000000000000000000000000000000000000000000000000000000000000000000000000000000000000000000000000000000000000000000000000000000000000000000000000000000000000000000
310
000000000000000000000000000000000000000000000000000000000000000000000000000000000000000000000000000000000000000000000000000000000000F500F5000000F5000000000000000000000000F50000000000000000000000000000000000F50000000000000000000000000000000000000000000000
310
00000000000000000000000000000000000000000000000000000000000000000000000000000000000000000000000000000000000000000000000000000000000000000000000000000000000000000000000000000000000000000000000000000000000000000000000000000000000000000000000000000000000000
310
0000000000000000000000000000000000000000000000000000000000000000000000000000000000000000000000000000000000000000000000000000000000000000F500F5000000F5000000000000000000000000F50000000000000000000000000000000000F5000000000000000000000000000000000000000000
310
00000000000000000000000000000000000000000000000000000000000000000000000000000000000000000000000000000000000000000000000000000000000000000000000000000000000000000000000000000000000000000000000000000000000000000000000000000000000000000000000000000000000000
310
00000000000000000000000000000000000000000000000000000000000000000000000000000000000000000000000000000000000000000000000000000000000000000000F500F5000000F5000000000000000000000000F50000000000000000000000000000000000F500000000000000000000000000000000000000
310
00000000000000000000000000000000000000000000000000000000000000000000000000000000000000000000000000000000000000000000000000000000000000000000000000000000000000000000000000000000000000000000000000000000000000000000000000000000000000000000000000000000000000
310
000000000000000000000000000000000000000000000000000000000000000000000000000000000000000000000000000000000000000000000000000000000000000000000000F500F5000000F5000000000000000000000000F50000000000000000000000000000000000F50000000000000000000000000000000000
310
00000000000000000000000000000000000000000000000000000000000000000000000000000000000000000000000000000000000000000000000000000000000000000000000000000000000000000000000000000000000000000000000000000000000000000000000000000000000000000000000000000000000000
310
0000000000000000000000000000000000000000000000000000000000000000000000000000000000000000000000000000000000000000000000000000000000000000000000000000F500F5000000F5000000000000000000000000F50000000000000000000000000000000000F5000000000000000000000000000000
310
00000000000000000000000000000000000000000000000000000000000000000000000000000000000000000000000000000000000000000000000000000000000000000000000000000000000000000000000000000000000000000000000000000000000000000000000000000000000000000000000000000000000000
310
00000000000000000000000000000000000000000000000000000000000000000000000000000000000000000000000000000000000000000000000000000000000000000000000000000000F500F5000000F5000000000000000000000000F50000000000000000000000000000000000F500000000000000000000000000
310
00000000000000000000000000000000000000000000000000000000000000000000000000000000000000000000000000000000000000000000000000000000000000000000000000000000000000000000000000000000000000000000000000000000000000000000000000000000000000000000000000000000000000
310
000000000000000000000000000000000000000000000000000000000000000000000000000000000000000000000000000000000000000000000000000000000000000000000000000000000000F500F5000000F5000000000000000000000000F50000000000000000000000000000000000F50000000000000000000000
310
00000000000000000000000000000000000000000000000000000000000000000000000000000000000000000000000000000000000000000000000000000000000000000000000000000000000000000000000000000000000000000000000000000000000000000000000000000000000000000000000000000000000000
310
0000000000000000000000000000000000000000000000000000000000000000000000000000000000000000000000000000000000000000000000000000000000000000000000000000000000000000F500F5000000F5000000000000000000000000F50000000000000000000000000000000000F5000000000000000000
310
00000000000000000000000000000000000000000000000000000000000000000000000000000000000000000000000000000000000000000000000000000000000000000000000000000000000000000000000000000000000000000000000000000000000000000000000000000000000000000000000000000000000000
310
00000000000000000000000000000000000000000000000000000000000000000000000000000000000000000000000000000000000000000000000000000000000000000000000000000000000000000000F500F5000000F5000000000000000000000000F50000000000000000000000000000000000F500000000000000
310
00000000000000000000000000000000000000000000000000000000000000000000000000000000000000000000000000000000000000000000000000000000000000000000000000000000000000000000000000000000000000000000000000000000000000000000000000000000000000000000000000000000000000
310
000000000000000000000000000000000000000000000000000000000000000000000000000000000000000000000000000000000000000000000000000000000000000000000000000000000000000000000000F500F5000000F5000000000000000000000000F50000000000000000000000000000000000F50000000000
310
00000000000000000000000000000000000000000000000000000000000000000000000000000000000000000000000000000000000000000000000000000000000000000000000000000000000000000000000000000000000000000000000000000000000000000000000000000000000000000000000000000000000000
310
0000000000000000000000000000000000000000000000000000000000000000000000000000000000000000000000000000000000000000000000000000000000000000000000000000000000000000000000000000F500F5000000F5000000000000000000000000F50000000000000000000000000000000000F5000000
310
00000000000000000000000000000000000000000000000000000000000000000000000000000000000000000000000000000000000000000000000000000000000000000000000000000000000000000000000000000000000000000000000000000000000000000000000000000000000000000000000000000000000000
310
00000000000000000000000000000000000000000000000000000000000000000000000000000000000000000000000000000000000000000000000000000000000000000000000000000000000000000000000000000000F500F5000000F5000000000000000000000000F50000000000000000000000000000000000F500
310
00000000000000000000000000000000000000000000000000000000000000000000000000000000000000000000000000000000000000000000000000000000000000000000000000000000000000000000000000000000000000000000000000000000000000000000000000000000000000000000000000000000000000
310
000000000000000000000000000000000000000000000000000000000000000000000000000000000000000000000000000000000000000000000000000000000000000000000000000000000000000000000000000000000000F500F5000000F50000000000000000000000F5F50000000000000000000000000000000000
310
F5000000000000000000000000000000000000000000000000000000000000000000000000000000000000000000000000000000000000000000000000000000000000000000000000000000000000000000000000000000000000000000000000000000000000000000000000000000000000000000000000000000000000
310
0000000000000000000000000000000000000000000000000000000000000000000000000000000000000000000000000000000000000000000000000000000000000000000000000000000000000000000000000000000000000000F500F5000000F5000000000000000000F5F5F5F5000000000000000000000000000000
310
0000F500000000000000000000000000000000000000000000000000000000000000000000000000000000000000000000000000000000000000000000000000000000000000000000000000000000000000000000000000000000000000000000000000000000000000000000000000000000000000000000000000000000
310
00000000000000000000000000000000000000000000000000000000000000000000000000000000000000000000000000000000000000000000000000000000000000000000000000000000000000000000000000000000000000000000F500F5000000F50000000000000000000000F5F500000000000000000000000000
310
00F5F500F50000000000000000000000000000000000000000000000000000000000000000000000000000000000000000000000000000000000000000000000000000000000000000000000000000000000000000000000000000000000000000000000000000000000000000000000000000000000000000000000000000
310
000000000000000000000000000000000000000000000000000000000000000000000000000000000000000000000000000000000000000000000000000000000000000000000000000000000000000000000000000000000000000000000000F500F5000000F5000000000000000000F5F500F50000000000000000000000
310
000000F5F500F5000000000000000000000000000000000000000000000000000000000000000000000000000000000000000000000000000000000000000000000000000000000000000000000000000000000000000000000000000000000000000000000000000000000000000000000000000000000000000000000000
310
0000000000000000000000000000000000000000000000000000000000000000000000000000000000000000000000000000000000000000000000000000000000000000000000000000000000000000000000000000000000000000000000000000F500F5000000F5000000000000000000F5F500F5000000000000000000
310
0000000000F500F5F500000000000000000000000000000000000000000000000000000000000000000000000000000000000000000000000000000000000000000000000000000000000000000000000000000000000000000000000000000000000000000000000000000000000000000000000000000000000000000000
310
00000000000000000000000000000000000000000000000000000000000000000000000000000000000000000000000000000000000000000000000000000000000000000000000000000000000000000000000000000000000000000000000000000000F500F5000000F5000000000000000000F5F5F5F500000000000000
310
00000000000000F5F5F5F50000000000000000000000000000000000000000000000000000000000000000000000000000000000000000000000000000000000000000000000000000000000000000000000000000000000000000000000000000000000000000000000000000000000000000000000000000000000000000
310
000000000000000000000000000000000000000000000000000000000000000000000000000000000000000000000000000000000000000000000000000000000000000000000000000000000000000000000000000000000000000000000000000000000000F500F5000000F50000000000000000000000F5F50000000000
310
000000000000000000F5F5F5F5000000000000000000000000000000000000000000000000000000000000000000000000000000000000000000000000000000000000000000000000000000000000000000000000000000000000000000000000000000000000000000000000000000000000000000000000000000000000
310
0000000000000000000000000000000000000000000000000000000000000000000000000000000000000000000000000000000000000000000000000000000000000000000000000000000000000000000000000000000000000000000000000000000000000000F500F5000000F5000000000000000000F5F5F5F5000000
310
0000000000000000000000000000F500000000000000000000000000000000000000000000000000000000000000000000000000000000000000000000000000000000000000000000000000000000000000000000000000000000000000000000000000000000000000000000000000000000000000000000000000000000
310
0000000000000000F5000000F5000000000000000000000000000000000000000000000000000000000000000000000000000000000000000000000000000000000000000000000000000000000000000000000000000000000000000000000000000000000000000000F500F5000000F5000000000000000000F5F500F500
310
00000000000000000000000000F5F500F50000000000000000000000000000000000000000000000000000000000000000000000000000000000000000000000000000000000000000000000000000000000000000000000000000000000000000000000000000000000000000000000000000000000000000000000000000
310
00000000000000000000F5000000F5000000000000000000000000000000000000000000000000000000000000000000000000000000000000000000000000000000000000000000000000000000000000000000000000000000000000000000000000000000000000000000F500F5000000F5000000000000000000F5F5F5
310
F50000000000000000000000000000F5F500F5000000000000000000000000000000000000000000000000000000000000000000000000000000000000000000000000000000000000000000000000000000000000000000000000000000000000000000000000000000000000000000000000000000000000000000000000
310
000000000000000000000000F5F5F5F5F5F5F5F5F5F5F5F50000000000000000000000000000000000000000000000000000000000000000000000000000000000000000000000000000000000000000000000000000000000000000000000000000000000000000000000000000F500F5000000F500000000000000000000
310
0000F50000000000000000000000000000F5F5F5F500000000000000000000000000000000000000000000000000000000000000000000000000000000000000000000000000000000000000000000000000000000000000000000000000000000000000000000000000000000000000000000000000000000000000000000
310
0000000000000000000000000000F5000000F5F5F5F5F5F500F50000000000000000000000000000000000000000000000000000000000000000000000000000000000000000000000000000000000000000000000000000000000000000000000000000000000000000000000000000F500F5000000F50000000000000000
310
00000000F50000000000000000000000000000000000F50000000000000000000000000000000000000000000000000000000000000000000000000000000000000000000000000000000000000000000000000000000000000000000000000000000000000000000000000000000000000000000000000000000000000000
310
00000000000000000000000000000000F5000000F5F500F500F5F50000000000000000000000000000F5000000000000000000000000000000000000000000000000F50000000000000000000000000000000000000000000000000000000000000000000000000000000000000000000000F500F5000000F5000000000000
310
000000000000F50000000000000000000000000000000000F5000000000000000000000000000000000000000000000000000000000000000000000000000000000000000000000000000000000000000000000000000000000000000000000000000000000000000000000000000000000000000000000000000000000000
310
000000000000000000000000000000000000F5000000F500F5F500F5F5F500000000000000000000000000F5000000000000000000000000000000000000000000000000F50000000000000000000000000000000000000000000000000000000000000000000000000000000000000000000000F500F5000000F500000000
310
0000000000000000F50000000000000000000000000000000000F500000000000000000000000000000000000000000000000000000000000000000000000000000000000000000000000000000000000000000000000000000000000000000000000000000000000000000000000000000000000000000000000000000000
310
0000000000000000000000000000000000000000F5000000F500000000000000000000000000000000000000F5F5F5F5F5F5F5F5F5F5F5F5F5F5F5F5F5F5F5F5F5F5F5F5F5F5F50000000000000000000000000000000000000000000000000000000000000000000000000000000000000000000000F500F5000000F50000
310
00000000000000000000F50000000000000000000000000000000000F50000000000000000000000000000000000000000000000000000000000000000000000000000000000000000000000000000000000000000000000000000000000000000000000000000000000000000000000000000000000000000000000000000
310
00000000000000000000000000000000000000000000F5000000F50000000000000000000000000000000000000000F5000000000000000000F5F500F5F500000000000000000000F50000000000000000000000000000000000000000000000000000000000000000000000000000000000000000000000F500F5000000F5
310
000000000000000000000000F50000000000000000000000000000000000F5000000000000000000000000000000000000000000000000000000000000000000000000000000000000000000000000000000000000000000000000000000000000000000000000000000000000000000000000000000000000000000000000
310
000000000000000000000000000000000000000000000000F5000000F50000000000000000000000000000000000000000F500F500000000000000F500F5F5F5000000000000F5000000F50000000000000000000000000000000000000000000000000000000000000000000000000000000000000000000000F500F50000
310
00F5000000000000000000000000F50000000000000000000000000000000000F500000000000000000000000000000000000000000000000000000000000000000000000000000000000000000000000000000000000000000000000000000000000000000000000000000000000000000000000000000000000000000000
310
0000000000000000000000000000000000000000000000000000F5000000F50000000000000000000000000000000000000000F500F5F5F5F5F5F5F5F5F5F5F5F5F5F5F5F5F5F5F5F5000000F50000000000000000000000000000000000000000000000000000000000000000000000000000000000000000000000F500F5
310
000000F5000000000000000000000000F50000000000000000000000000000000000F50000000000000000000000000000000000000000000000000000000000000000000000000000000000000000000000000000000000000000000000000000000000000000000000000000000000000000000000000000000000000000
310
00000000000000000000000000000000000000000000000000000000F5000000F50000000000000000000000000000000000000000F500F50000000000F5F5F5F5F5F5F5F5F500000000F5000000F50000000000000000000000000000000000000000000000000000000000000000000000000000000000000000000000F5
310
00F5000000F5000000000000000000000000F50000000000000000000000000000000000F5000000000000000000000000000000000000000000000000000000000000000000000000000000000000000000000000000000000000000000000000000000000000000000000000000000000000000000000000000000000000
310
00000000000000000000000000F500000000000000000000000000000000F5000000F50000000000000000000000000000000000000000F500F5000000000000F5F5F50000F5F5F500000000F5000000F500000000000000000000000000000000000000000000000000000000000000000000000000000000000000000000
310
00F500F5000000F5000000000000000000000000F50000000000000000000000000000000000F500000000000000000000000000000000000000000000000000000000000000000000000000000000000000000000000000000000000000000000000000000000000000000000000000000000000000000000000000000000
310
0000000000000000000000F5F500F5F500000000000000000000000000000000F5000000F50000000000000000000000000000000000000000F500F50000000000F5F500F50000F5F5F500000000F5000000F50000000000000000000000000000000000000000000000000000000000000000000000000000000000000000
310
000000F500F5000000F5000000000000000000000000F50000000000000000000000000000000000F50000000000000000000000000000000000000000000000000000000000000000000000000000000000000000000000000000000000000000000000000000000000000000000000000000000000000000000000000000
310
00000000000000000000000000F5F5F5F5F500000000000000000000000000000000F5000000F50000000000000000000000000000000000000000F500F5000000000000000000000000000000000000F5000000F5000000000000000000000000000000000000000000000000000000000000000000000000000000000000
310
0000000000F500F5000000F5000000000000000000000000F50000000000000000000000000000000000F5000000000000000000000000000000000000000000000000000000000000000000000000000000000000000000000000000000000000000000000000000000000000000000000000000000000000000000000000
310
000000000000000000000000000000000000F5F500000000000000000000000000000000F5000000F50000000000000000000000000000000000000000F500F5000000000000000000000000000000000000F5000000F500000000000000000000000000000000000000000000000000000000000000000000000000000000
310
00000000000000F500F5000000F5000000000000000000000000F50000000000000000000000000000000000F500000000000000000000000000000000000000000000000000000000000000000000000000000000000000000000000000000000000000000000000000000000000000000000000000000000000000000000
310
0000000000000000000000000000000000F5F500F5F500000000000000000000000000000000F5000000F50000000000000000000000000000000000000000F500F5000000000000000000000000000000000000F5000000F50000000000000000000000000000000000000000000000000000000000000000000000000000
310
000000000000000000F500F5000000F5000000000000000000000000F50000000000000000000000000000000000F50000000000000000000000000000000000000000000000000000000000000000000000000000000000000000000000000000000000000000000000000000000000000000000000000000000000000000
310
00000000000000000000000000000000000000F5F500F5F500000000000000000000000000000000F5000000F50000000000000000000000000000000000000000F500F5000000000000000000000000000000000000F5000000F5000000000000000000000000000000000000000000000000000000000000000000000000
310
0000000000000000000000F500F5000000F5000000000000000000000000F50000000000000000000000000000000000F5000000000000000000000000000000000000000000000000000000000000000000000000000000000000000000000000000000000000000000000000000000000000000000000000000000000000
310
000000000000000000000000000000000000000000F5F5F5F5F500000000000000000000000000000000F5000000F50000000000000000000000000000000000000000F500F5000000000000000000000000000000000000F5000000F500000000000000000000000000000000000000000000000000000000000000000000
310
00000000000000000000000000F500F5000000F5000000000000000000000000F50000000000000000000000000000000000F500000000000000000000000000000000000000000000000000000000000000000000000000000000000000000000000000000000000000000000000000000000000000000000000000000000
310
000000000000000000000000000000000000000000000000000000F500000000000000000000000000000000F5000000F50000000000000000000000000000000000000000F500F5000000000000000000000000000000000000F5000000F50000000000000000000000000000000000000000000000000000000000000000
310
000000000000000000000000000000F500F5000000F5000000000000000000000000F50000000000000000000000000000000000F50000000000000000000000000000000000000000000000000000000000000000000000000000000000000000000000000000000000000000000000000000000000000000000000000000
310
000000000000000000000000000000000000000000000000000000F5F5F5F5F5F5F5F5F5F5F5F5F5F5F5F5F5F5F5F5F5F5F5F50000000000000000000000000000000000000000F500F5000000000000000000000000000000000000F5000000F5000000000000000000000000000000000000000000000000000000000000
310
0000000000000000000000000000000000F500F5000000F5000000000000000000000000F50000000000000000000000000000000000F5000000000000000000000000000000000000000000000000000000000000000000000000000000000000000000000000000000000000000000000000000000000000000000000000
310
00000000000000000000000000000000000000000000000000000000000000F500000000000000000000000000000000F5F5F5F5F50000000000000000000000000000000000000000F500F5000000000000000000000000000000000000F5000000F500000000000000000000000000000000000000000000000000000000
310
00000000000000000000000000000000000000F500F5000000F5000000000000000000000000F50000000000000000000000000000000000F500000000000000000000000000000000000000000000000000000000000000000000000000000000000000000000000000000000000000000000000000000000000000000000
310
000000000000000000000000000000000000000000000000000000000000000000F500000000000000000000000000000000F5F50000000000000000000000000000000000000000000000F500F5000000000000000000000000000000000000F5000000F50000000000000000000000000000000000000000000000000000
310
000000000000000000000000000000000000000000F500F5000000F5000000000000000000000000F50000000000000000000000000000000000F50000000000000000000000000000000000000000000000000000000000000000000000000000000000000000000000000000000000000000000000000000000000000000
310
0000000000000000000000000000000000000000000000000000000000000000000000F500000000000000000000000000000000F5F50000000000000000000000000000000000000000000000F500F5000000000000000000000000000000000000F5000000F5000000000000000000000000000000000000000000000000
310
0000000000000000000000000000000000000000000000F500F5000000F5000000000000000000000000F50000000000000000000000000000000000F5000000000000000000000000000000000000000000000000000000000000000000000000000000000000000000000000000000000000000000000000000000000000
310
00000000000000000000000000000000000000000000000000000000000000000000000000F500000000000000000000000000000000F5F5F5F5F5F5F5F5F5F5F5F5F5F5F5F5F5F5F5F5F5F5F5F5F5F500F5000000000000000000000000000000000000F50000F5F5F5F5F5F5F5F5F5F5F5F5F5F5F5F5F5F5F5F5F5F5F5F5
310
F5F5F5F5F5F5F5F5F5F5F5F5F5F5F5F5F5F5F5F5F5F5F5F5F5F500F5000000F5000000000000000000000000F50000000000000000000000000000000000F500000000000000000000000000000000000000000000000000000000000000000000000000000000000000000000000000000000000000000000000000000000
310
000000000000000000000000000000000000000000000000000000000000000000000000000000F500000000000000000000000000000000F500000000000000000000000000000000000000000000000000F5F5000000000000000000000000000000000000F500F500F5F5F5F5F5F5F5F5F5F5F5F5F5F5F5F5F5F5F5F5F5
310
F5F5F5F5F5F5F5F5F5F5F5F5F5F5F5F5F5F5F5F5F5F5F5F5F5F5F5F5F5F5F5F5F5F5F5F5F5F5F5F5F5F5F5F5F5F5F5F500000000000000000000000000000000F50000000000000000000000000000000000000000000000000000000000000000000000000000000000000000000000000000000000000000000000000000
310
000000000000000000000000000000000000000000000000000000000000000000000000000000F5F5F5F5F5F5F5F5F5F5F5F5F5F5F5F5F5F5F5F5F5F5F5F5F5F5F5F5F5F5F5F5F5F5F5F5F5F5F5F5F5F5F5F500F5F5000000000000000000000000000000000000F5F500F500000000000000000000000000000000000000
310
00000000000000000000000000000000000000000000000000000000000000F5000000F5000000000000000000F500F5F50000000000000000000000000000000000F5000000000000000000000000000000000000000000000000000000000000000000000000000000000000000000000000000000000000000000000000
310
000000000000000000000000000000000000000000000000000000000000000000000000000000000000F5F500000000000000000000000000000000F5000000000000000000000000000000000000000000000000F500F5F5F5F5F5F5F5F5F5F5F5F5F5F5F5F5F5F5F5F50000F50000000000000000000000000000000000
310
000000000000000000000000000000000000000000000000000000000000000000F5000000F5000000000000000000F5F500F50000000000000000000000000000000000F500000000000000000000000000000000000000000000000000000000000000000000000000000000000000000000000000000000000000000000
310
0000000000000000000000000000000000000000000000000000000000000000000000000000000000F5F5F500F500000000000000000000000000000000F500000000000000000000000000000000000000000000000000F500000000000000000000F500000000000000000000F500000000000000000000000000000000
310
0000000000000000000000000000000000000000000000000000000000000000000000F5000000F5000000000000000000F5F5F5F50000000000000000000000000000000000F50000000000000000000000000000000000000000000000000000000000000000000000000000000000000000000000000000000000000000
310
00000000000000000000000000000000000000000000000000000000000000000000000000000000F5F5F5F500F5F5F5F5F5F5F5F5F5F5F5F5F5F5F5F5F5F5F5F5F5F5F5F5F5F5F5F5F5F5F5F5F5F5F5F5F5F5F5F5F5F5F5F5F5F5F5F5F5F5F5F5F5F5F5F5F5F5F5F5F5F5F5F5F5F5F5F5F5F5F5F5F5F5F5F5F5F5F5F5F5F5
310
F5F5F5F5F5F5F5F5F5F5F5F5F5F5F5F5F5F5F5F5F5F5F5F5F5F5F5F5F5F5F5F5F5F5F5F5F5F5F5F5F5F5F5F5F5F5F5F5F5F5F5F5F5F5F5F5F5F5F5F5F5F5F5F5F5F5F5F5F5F5F5F5F5F5F500000000000000000000000000000000000000000000000000000000000000000000000000000000000000000000000000000000
310
000000000000000000000000000000000000000000000000000000000000000000000000000000000000F5F5F5F50000000000000000000000000000000000000000F5000000000000000000000000000000000000000000000000000000000000000000000000F50000000000000000000000000000000000000000000000
310
000000000000000000000000000000000000000000000000000000000000000000000000000000F5000000F50000000000000000000000000000000000000000000000000000000000000000000000000000000000000000000000000000000000000000000000000000000000000000000000000000000000000000000000
310
0000000000000000000000000000000000000000000000000000000000000000000000000000000000000000000000F50000000000000000000000000000000000000000F5000000000000000000000000000000000000000000000000000000000000000000000000F5000000000000000000000000000000000000000000
310
0000000000000000000000000000000000000000000000000000000000000000000000000000000000F5000000F5000000000000000000000000000000000000000000000000000000000000000000000000000000000000000000000000000000000000000000000000000000000000000000000000000000000000000000
310
00000000000000000000000000000000000000000000000000000000000000000000000000000000000000000000F5F500F50000000000000000000000000000000000000000F5000000000000000000000000000000000000000000000000000000000000000000000000F500000000000000000000000000000000000000
310
00000000000000000000000000000000000000000000000000000000000000000000000000000000000000F5000000F500000000000000000000000000000000000000000000000000000000000000000000000000000000000000000000000000000000000000000000000000000000000000000000000000000000000000
310
000000000000000000000000000000000000000000000000000000000000000000000000000000000000000000000000F5F500F50000000000000000000000000000000000000000F5000000000000000000000000000000000000000000000000000000000000000000000000F50000000000000000000000000000000000
310
000000000000000000000000000000000000000000000000000000000000000000000000000000000000000000F5000000F50000000000000000000000000000000000000000000000000000000000000000000000000000000000000000000000000000000000000000000000000000000000000000000000000000000000
310
0000000000000000000000000000000000000000000000000000000000000000000000000000000000000000000000000000F5F5F5F50000000000000000000000000000000000000000F5000000000000000000000000000000000000000000000000000000000000000000000000F5000000000000000000000000000000
310
0000000000000000000000000000000000000000000000000000000000000000000000000000000000000000000000F5000000F5000000000000000000000000000000000000000000000000000000000000000000000000000000000000000000000000000000000000000000000000000000000000000000000000000000
310
00000000000000000000000000000000000000000000000000000000000000000000000000000000000000000000000000000000000000F50000000000000000000000000000000000000000F5000000000000000000000000000000000000000000000000000000000000000000000000F500000000000000000000000000
310
00000000000000000000000000000000000000000000000000000000000000000000000000000000000000000000000000F5000000F500000000000000000000000000000000000000000000000000000000000000000000000000000000000000000000000000000000000000000000000000000000000000000000000000
310
000000000000000000000000000000000000000000000000000000000000000000000000000000000000000000000000000000000000000000000000000000000000000000000000000000000000F5000000000000000000000000000000000000000000000000000000000000000000000000F50000000000000000000000
310
000000000000000000000000000000000000000000000000000000000000000000000000000000000000000000000000000000F5000000F50000000000000000000000000000000000000000000000000000000000000000000000000000000000000000000000000000000000000000000000000000000000000000000000
310
0000000000000000000000000000000000000000000000000000000000000000000000000000000000000000000000000000000000000000000000000000000000000000000000000000000000000000F5000000000000000000000000000000000000000000000000000000000000000000000000F5000000000000000000
310
0000000000000000000000000000000000000000000000000000000000000000000000000000000000000000000000000000000000F5000000F5000000000000000000000000000000000000000000000000000000000000000000000000000000000000000000000000000000000000000000000000000000000000000000
310
00000000000000000000000000000000000000000000000000000000000000000000000000000000000000000000000000000000000000000000000000000000000000000000000000000000000000000000F5000000000000000000000000000000000000000000000000000000000000000000000000F500000000000000
310
00000000000000000000000000000000000000000000000000000000000000000000000000000000000000000000000000000000000000F5000000F500000000000000000000000000000000000000000000000000000000000000000000000000000000000000000000000000000000000000000000000000000000000000
310
000000000000000000000000000000000000000000000000000000000000000000000000000000000000000000000000000000000000000000000000000000000000000000000000000000000000000000000000F5000000000000000000000000000000000000000000000000000000000000000000000000F50000000000
310
000000000000000000000000000000000000000000000000000000000000000000000000000000000000000000000000000000000000000000F5000000F50000000000000000000000000000000000000000000000000000000000000000000000000000000000000000000000000000000000000000000000000000000000
310
0000000000000000000000000000000000000000000000000000000000000000000000000000000000000000000000000000000000000000000000000000000000000000000000000000000000000000000000000000F5000000000000000000000000000000000000000000000000000000000000000000000000F5000000
310
0000000000000000000000000000000000000000000000000000000000000000000000000000000000000000000000000000000000000000000000F5000000F5000000000000000000000000000000000000000000000000000000000000000000000000000000000000000000000000000000000000000000000000000000
310
00000000000000000000000000000000000000000000000000000000000000000000000000000000000000000000000000000000000000000000000000000000000000000000000000000000000000000000000000000000F5000000000000000000000000000000000000000000000000000000000000000000000000F500
310
00000000000000000000000000000000000000000000000000000000000000000000000000000000000000000000000000000000000000000000000000F5000000F500000000000000000000000000000000000000000000000000000000000000000000000000000000000000000000000000000000000000000000000000
310
000000000000000000000000000000000000000000000000000000000000000000000000000000000000000000000000000000000000000000000000000000000000000000000000000000000000000000000000000000000000F5000000000000000000000000000000000000000000000000000000000000000000000000
310
F50000000000000000000000000000000000000000000000000000000000000000000000000000000000000000000000000000000000000000000000000000F5000000F50000000000000000000000000000000000000000000000000000000000000000000000000000000000000000000000000000000000000000000000
310
0000000000000000000000000000000000000000000000000000000000000000000000000000000000000000000000000000000000000000000000000000000000000000000000000000000000000000000000000000000000000000F500000000000000000000000000000000000000000000000000000000000000000000
310
0000F50000000000000000000000000000000000000000000000000000000000000000000000000000000000000000000000000000000000000000000000000000F5000000F5000000000000000000000000000000000000000000000000000000000000000000000000000000000000000000000000000000000000000000
310
00000000000000000000000000000000000000000000000000000000000000000000000000000000000000000000000000000000000000000000000000000000000000000000000000000000000000000000000000000000000000000000F50000000000000000000000000000000000000000000000000000000000000000
310
00000000F50000000000000000000000000000000000000000000000000000000000000000000000000000000000000000000000000000000000000000000000000000F5000000F500000000000000000000000000000000000000000000000000000000000000000000000000000000000000000000000000000000000000
310
000000000000000000000000000000000000000000000000000000000000000000000000000000000000000000000000000000000000000000000000000000000000000000000000000000000000000000000000000000000000000000000000F5F5F5F5F5F5F5F5F5F5F5F5F5F5F5F5F5F5F5F5F5F5F5F5F5F5F5F5F5F5F5
310
F5F5F5F5F5F5F50000000000000000000000000000000000000000000000000000000000000000000000000000000000000000000000000000000000000000000000000000F5000000F50000000000000000000000000000000000000000000000000000000000000000000000000000000000000000000000000000000000
310
0000000000000000000000000000000000000000000000000000000000000000000000000000000000000000000000000000000000000000000000000000000000000000000000000000000000000000000000000000000000000000000000000000F5000000000000000000000000F5F5F50000F500F500F500F500000000
310
0000000000000000F50000000000000000000000000000000000000000000000000000000000000000000000000000000000000000000000000000000000000000000000000000F5000000F5000000000000000000000000000000000000000000000000000000000000000000000000000000000000000000000000000000
310
00000000000000000000000000000000000000000000000000000000000000000000000000000000000000000000000000000000000000000000000000000000000000000000000000000000000000000000000000000000000000000000000000000000F500000000000000000000000000F500F5F5000000F5F5F5F50000
310
00000000000000000000000000000000000000000000000000000000000000000000000000000000000000000000000000000000000000000000000000000000000000000000000000F5000000F500000000000000000000000000000000000000000000000000000000000000000000000000000000000000000000000000
310
000000000000000000000000000000000000000000000000000000000000000000000000000000000000000000000000000000000000000000000000000000000000000000000000000000000000000000000000000000000000000000000000000000000000F5000000000000000000000000F5F5F5F5F500F5F5F5F5F5F5
310
000000000000000000000000000000000000000000000000000000000000000000000000000000000000000000000000000000000000000000000000000000000000000000000000000000F5000000F50000000000000000000000000000000000000000000000000000000000000000000000000000000000000000000000
310
0000000000000000000000000000000000000000000000000000000000000000000000000000000000000000000000000000000000000000000000000000000000000000000000000000000000000000000000000000000000000000000000000000000000000000F500000000000000000000000000000000000000000000
310
0000000000000000000000000000000000000000000000000000000000000000000000000000000000000000000000000000000000000000000000000000000000000000000000000000000000F5000000F5000000000000000000000000000000000000000000000000000000000000000000000000000000000000000000
310
00000000000000000000000000000000000000000000000000000000000000000000000000000000000000000000000000000000000000000000000000000000000000000000000000000000000000000000000000000000000000000000000000000000000000000000F50000000000000000000000000000000000000000
310
00000000000000000000000000000000000000000000000000000000000000000000000000000000000000000000000000000000000000000000000000000000000000000000000000000000000000F5000000F500000000000000000000000000000000000000000000000000000000000000000000000000000000000000
310
000000000000000000000000000000000000000000000000000000000000000000000000000000000000000000000000000000000000000000000000000000000000000000000000000000000000000000000000000000000000000000000000000000000000000000000000F5000000000000000000000000000000000000
310
000000000000000000000000000000000000000000000000000000000000000000000000000000000000000000000000000000000000000000000000000000000000000000000000000000000000000000F5000000F50000000000000000000000000000000000000000000000000000000000000000000000000000000000
310
0000000000000000000000000000000000000000000000000000000000000000000000000000000000000000000000000000000000000000000000000000000000000000000000000000000000000000000000000000000000000000000000000000000000000000000000000000F500000000000000000000000000000000
310
0000000000000000000000000000000000000000000000000000000000000000000000000000000000000000000000000000000000000000000000000000000000000000000000000000000000000000000000F5000000F5000000000000000000000000000000000000000000000000000000000000000000000000000000
310
00000000000000000000000000000000000000000000000000000000000000000000000000000000000000000000000000000000000000000000000000000000000000000000000000000000000000000000000000000000000000000000000000000000000000000000000000000000F50000000000000000000000000000
310
00000000000000000000000000000000000000000000000000000000000000000000000000000000000000000000000000000000000000000000000000000000000000000000000000000000000000000000000000F5000000F500000000000000000000000000000000000000000000000000000000000000000000000000
310
000000000000000000000000000000000000000000000000000000000000000000000000000000000000000000000000000000000000000000000000000000000000000000000000000000000000000000000000000000000000000000000000000000000000000000000000000000000000F5000000000000000000000000
310
000000000000000000000000000000000000000000000000000000000000000000000000000000000000000000000000000000000000000000000000000000000000000000000000000000000000000000000000000000F5000000F50000000000000000000000000000000000000000000000000000000000000000000000
310
0000000000000000000000000000000000000000000000000000000000000000000000000000000000000000000000000000000000000000000000000000000000000000000000000000000000000000000000000000000000000000000000000000000000000000000000000000000000000000F500000000000000000000
310
0000000000000000000000000000000000000000000000000000000000000000000000000000000000000000000000000000000000000000000000000000000000000000000000000000000000000000000000000000000000F5000000F5000000000000000000000000000000000000000000000000000000000000000000
310
00000000000000000000000000000000000000000000000000000000000000000000000000000000000000000000000000000000000000000000000000000000000000000000000000000000000000000000000000000000000000000000000000000000000000000000000000000000000000000000F50000000000000000
310
00000000000000000000000000000000000000000000000000000000000000000000000000000000000000000000000000000000000000000000000000000000000000000000000000000000000000000000000000000000000000F5000000F500000000000000000000000000000000000000000000000000000000000000
310
000000000000000000000000000000000000000000000000000000000000000000000000000000000000000000000000000000000000000000000000000000000000000000000000000000000000000000000000000000000000000000000000000000000000000000000000000000000000000000000000F5000000000000
310
000000000000000000000000000000000000000000000000000000000000000000000000000000000000000000000000000000000000000000000000000000000000000000000000000000000000000000000000000000000000000000F5000000F50000000000000000000000000000000000000000000000000000000000
310
0000000000000000000000000000000000000000000000000000000000000000000000000000000000000000000000000000000000000000000000000000000000000000000000000000000000000000000000000000000000000000000000000000000000000000000000000000000000000000000000000000F500000000
310
0000000000000000000000000000000000000000000000000000000000000000000000000000000000000000000000000000000000000000000000000000000000000000000000000000000000000000000000000000000000000000000000F5000000F5000000000000000000000000000000000000000000000000000000
310
00000000000000000000000000000000000000000000000000000000000000000000000000000000000000000000000000000000000000000000000000000000000000000000000000000000000000000000000000000000000000000000000000000000000000000000000000000000000000000000000000000000F50000
310
00000000000000000000000000000000000000000000000000000000000000000000000000000000000000000000000000000000000000000000000000000000000000000000000000000000000000000000000000000000000000000000000000F5000000F500000000000000000000000000000000000000000000000000
310
000000000000000000000000000000000000000000000000000000000000000000000000000000000000000000000000000000000000000000000000000000000000000000000000000000000000000000000000000000000000000000000000000000000000000000000000000000000000000000000000000000000000F5
310
000000000000000000000000000000000000000000000000000000000000000000000000000000000000000000000000000000000000000000000000000000000000000000000000000000000000000000000000000000000000000000000000000000F5000000F50000000000000000000000000000000000000000000000
310
00000000000000000000000000000000000000000000000000000000000000000000000000000000000000000000000000000000000000000000000000000000000000000000000000000000000000000000000000000000000000000000000000000000000000000000000000000000000000000000000000000000000000
310
00F5000000000000000000000000000000000000000000000000000000000000000000000000000000000000000000000000000000000000000000000000000000000000000000000000000000000000000000000000000000000000000000000000000000F5000000F5000000000000000000000000000000000000000000
310
00000000000000000000000000000000000000000000000000000000000000000000000000000000000000000000000000000000000000000000000000000000000000000000000000000000000000000000000000000000000000000000000000000000000000000000000000000000000000000000000000000000000000
310
000000F5F5F5F5F5F5F5F5F5F5F5F5F5F5F5F5F5F5F5F5F5F5F5F5F5F5F5F5F5F5F5F5F5F5F5F5F5F5F5F5F5F5F5F5F5F5F5F5F5F5F5F5F5F5F5F5F5F5F5F5F5F5F5F5F5F5F5F5F5F5F5F5F5F5F5F5F5F5F5F5F5F5F5F5F5F5F5F5F5F5F5F5F5F5F5F5F5F5F5F5F5F5F5F5F500000000000000000000000000000000000000
310
00000000000000000000000000000000000000000000000000000000000000000000000000000000000000000000000000000000000000000000000000000000000000000000000000000000000000000000000000000000000000000000000000000000000000000000000000000000000000000000000000000000000000
310
0000000000F5000000000000000000000000000000000000000000000000000000000000000000000000000000000000000000F5F5F5F5F5F5F5F5F5000000000000000000000000000000000000000000000000000000000000000000000000000000000000000000F500F500F50000000000000000000000000000000000
310
00000000000000000000000000000000000000000000000000000000000000000000000000000000000000000000000000000000000000000000000000000000000000000000000000000000000000000000000000000000000000000000000000000000000000000000000000000000000000000000000000000000000000
310
00000000000000F5000000000000000000000000000000000000000000000000000000000000000000000000000000000000000000F5F5F5F5F5000000F5000000000000000000000000000000000000000000000000000000000000000000000000000000000000000000F50000F5F5000000000000000000000000000000
310
00000000000000000000000000000000000000000000000000000000000000000000000000000000000000000000000000000000000000000000000000000000000000000000000000000000000000000000000000000000000000000000000000000000000000000000000000000000000000000000000000000000000000
310
00000000000000000000000000000000000000000000000000000000000000000000000000000000000000000000000000000000000000F5F5F500F500F5F5F5000000000000000000000000000000000000000000000000000000000000000000000000000000000000000000000000F50000000000000000000000000000
310
00000000000000000000000000000000000000000000000000000000000000000000000000000000000000000000000000000000000000000000000000000000000000000000000000000000000000000000000000000000000000000000000000000000000000000000000000000000000000000000000000000000000000
310
000000000000000000000000000000000000000000000000000000000000000000000000000000000000000000000000000000000000000000F5F500F5F500F5F5F5000000000000000000000000000000000000000000000000000000000000000000000000000000000000000000000000F5F5F5F5F5F5F5F5F5F5000000
310
00000000000000000000000000000000000000000000000000000000000000000000000000000000000000000000000000000000000000000000000000000000000000000000000000000000000000000000000000000000000000000000000000000000000000000000000000000000000000000000000000000000000000
310
000000000000000000000000000000000000000000000000000000000000000000000000000000000000000000000000000000000000000000000000000000000000000000000000000000000000000000000000000000000000000000000000000000000000000000000000000000000000000000F5F5000000F500F5F500
310
00000000000000000000000000000000000000000000000000000000000000000000000000000000000000000000000000000000000000000000000000000000000000000000000000000000000000000000000000000000000000000000000000000000000000000000000000000000000000000000000000000000000000
310
00000000000000000000000000000000000000000000000000000000000000000000000000000000000000000000000000000000000000000000000000000000000000000000000000000000000000000000000000000000000000000000000000000000000000000000000000000000000000000000F500F500F5F5F5F500
310
F5000000000000000000000000000000000000000000000000000000000000000000000000000000000000000000000000000000000000000000000000000000000000000000000000000000000000000000000000000000000000000000000000000000000000000000000000000000000000000000000000000000000000
310
00000000000000000000000000000000000000000000000000000000000000000000000000000000000000000000000000000000000000000000000000000000000000000000000000000000000000000000000000000000000000000000000000000000000000000000000000000000000000000000000000F5F500F5F5F5
310
00F50000000000000000000000000000000000000000000000000000000000000000000000000000000000000000000000000000000000000000000000000000000000000000000000000000000000000000000000000000000000000000000000000000000000000000000000000000000000000000000000000000000000
310
00000000000000000000000000000000000000000000000000000000000000000000000000000000000000000000000000000000000000000000000000000000000000000000000000000000000000000000000000000000000000000000000000000000000000000000000000000000000000000000000000000000000000
310
00000000000000000000000000000000000000000000000000000000000000000000000000000000000000000000000000000000000000000000000000000000000000000000000000000000000000000000000000000000000000000000000000000000000000000000000000000000000000000000000000000000000000
310
00000000000000000000000000000000000000000000000000000000000000000000000000000000000000000000000000000000000000000000000000000000000000000000000000000000000000000000000000000000000000000000000000000000000000000000000000000000000000000000000000000000000000
310
00000000000000000000000000000000000000000000000000000000000000000000000000000000000000000000000000000000000000000000000000000000000000000000000000000000000000000000000000000000000000000000000000000000000000000000000000000000000000000000000000000000000000
310
00000000000000000000000000000000000000000000000000000000000000000000000000000000000000000000000000000000000000000000000000000000000000000000000000000000000000000000000000000000000000000000000000000000000000000000000000000000000000000000000000000000000000
310
00000000000000000000000000000000000000000000000000000000000000000000000000000000000000000000000000000000000000000000000000000000000000000000000000000000000000000000000000000000000000000000000000000000000000000000000000000000000000000000000000000000000000
310
00000000000000000000000000000000000000000000000000000000000000000000000000000000000000000000000000000000000000000000000000000000000000000000000000000000000000000000000000000000000000000000000000000000000000000000000000000000000000000000000000000000000000
310
00000000000000000000000000000000000000000000000000000000000000000000000000000000000000000000000000000000000000000000000000000000000000000000000000000000000000000000000000000000000000000000000000000000000000000000000000000000000000000000000000000000000000
310
00000000000000000000000000000000000000000000000000000000000000000000000000000000000000000000000000000000000000000000000000000000000000000000000000000000000000000000000000000000000000000000000000000000000000000000000000000000000000000000000000000000000000
310
00000000000000000000000000000000000000000000000000000000000000000000000000000000000000000000000000000000000000000000000000000000000000000000000000000000000000000000000000000000000000000000000000000000000000000000000000000000000000000000000000000000000000
310
00000000000000000000000000000000000000000000000000000000000000000000000000000000000000000000000000000000000000000000000000000000000000000000000000000000000000000000000000000000000000000000000000000000000000000000000000000000000000000000000000000000000000
310
00000000000000000000000000000000000000000000000000000000000000000000000000000000000000000000000000000000000000000000000000000000000000000000000000000000000000000000000000000000000000000000000000000000000000000000000000000000000000000000000000000000000000
310
00000000000000000000000000000000000000000000000000000000000000000000000000000000000000000000000000000000000000000000000000000000000000000000000000000000000000000000000000000000000000000000000000000000000000000000000000000000000000000000000000000000000000
310
00000000000000000000000000000000000000000000000000000000000000000000000000000000000000000000000000000000000000000000000000000000000000000000000000000000000000000000000000000000000000000000000000000000000000000000000000000000000000000000000000000000000000
310
00000000000000000000000000000000000000000000000000000000000000000000000000000000000000000000000000000000000000000000000000000000000000000000000000000000000000000000000000000000000000000000000000000000000000000000000000000000000000000000000000000000000000
310
00000000000000000000000000000000000000000000000000000000000000000000000000000000000000000000000000000000000000000000000000000000000000000000000000000000000000000000000000000000000000000000000000000000000000000000000000000000000000000000000000000000000000
310
00000000000000000000000000000000000000000000000000000000000000000000000000000000000000000000000000000000000000000000000000000000000000000000000000000000000000000000000000000000000000000000000000000000000000000000000000000000000000000000000000000000000000
310
00000000000000000000000000000000000000000000000000000000000000000000000000000000000000000000000000000000000000000000000000000000000000000000000000000000000000000000000000000000000000000000000000000000000000000000000000000000000000000000000000000000000000
310
00000000000000000000000000000000000000000000000000000000000000000000000000000000000000000000000000000000000000000000000000000000000000000000000000000000000000000000000000000000000000000000000000000000000000000000000000000000000000000000000000000000000000
310
00000000000000000000000000000000000000000000000000000000000000000000000000000000000000000000000000000000000000000000000000000000000000000000000000000000000000000000000000000000000000000000000000000000000000000000000000000000000000000000000000000000000000
310
00000000000000000000000000000000000000000000000000000000000000000000000000000000000000000000000000000000000000000000000000000000000000000000000000000000000000000000000000000000000000000000000000000000000000000000000000000000000000000000000000000000000000
310
00000000000000000000000000000000000000000000000000000000000000000000000000000000000000000000000000000000000000000000000000000000000000000000000000000000000000000000000000000000000000000000000000000000000000000000000000000000000000000000000000000000000000
310
00000000000000000000000000000000000000000000000000000000000000000000000000000000000000000000000000000000000000000000000000000000000000000000000000000000000000000000000000000000000000000000000000000000000000000000000000000000000000000000000000000000000000
310
00000000000000000000000000000000000000000000000000000000000000000000000000000000000000000000000000000000000000000000000000000000000000000000000000000000000000000000000000000000000000000000000000000000000000000000000000000000000000000000000000000000000000
310
00000000000000000000000000000000000000000000000000000000000000000000000000000000000000000000000000000000000000000000000000000000000000000000000000000000000000000000000000000000000000000000000000000000000000000000000000000000000000000000000000000000000000
310
00000000000000000000000000000000000000000000000000000000000000000000000000000000000000000000000000000000000000000000000000000000000000000000000000000000000000000000000000000000000000000000000000000000000000000000000000000000000000000000000000000000000000
310
00000000000000000000000000000000000000000000000000000000000000000000000000000000000000000000000000000000000000000000000000000000000000000000000000000000000000000000000000000000000000000000000000000000000000000000000000000000000000000000000000000000000000
310
00000000000000000000000000000000000000000000000000000000000000000000000000000000000000000000000000000000000000000000000000000000000000000000000000000000000000000000000000000000000000000000000000000000000000000000000000000000000000000000000000000000000000
310
00000000000000000000000000000000000000000000000000000000000000000000000000000000000000000000000000000000000000000000000000000000000000000000000000000000000000000000000000000000000000000000000000000000000000000000000000000000000000000000000000000000000000
310
00000000000000000000000000000000000000000000000000000000000000000000000000000000000000000000000000000000000000000000000000000000000000000000000000000000000000000000000000000000000000000000000000000000000000000000000000000000000000000000000000000000000000
310
00000000000000000000000000000000000000000000000000000000000000000000000000000000000000000000000000000000000000000000000000000000000000000000000000000000000000000000000000000000000000000000000000000000000000000000000000000000000000000000000000000000000000
310
00000000000000000000000000000000000000000000000000000000000000000000000000000000000000000000000000000000000000000000000000000000000000000000000000000000000000000000000000000000000000000000000000000000000000000000000000000000000000000000000000000000000000
310
00000000000000000000000000000000000000000000000000000000000000000000000000000000000000000000000000000000000000000000000000000000000000000000000000000000000000000000000000000000000000000000000000000000000000000000000000000000000000000000000000000000000000
310
00000000000000000000000000000000000000000000000000000000000000000000000000000000000000000000000000000000000000000000000000000000000000000000000000000000000000000000000000000000000000000000000000000000000000000000000000000000000000000000000000000000000000
310
00000000000000000000000000000000000000000000000000000000000000000000000000000000000000000000000000000000000000000000000000000000000000000000000000000000000000000000000000000000000000000000000000000000000000000000000000000000000000000000000000000000000000
310
00000000000000000000000000000000000000000000000000000000000000000000000000000000000000000000000000000000000000000000000000000000000000000000000000000000000000000000000000000000000000000000000000000000000000000000000000000000000000000000000000000000000000
310
00000000000000000000000000000000000000000000000000000000000000000000000000000000000000000000000000000000000000000000000000000000000000000000000000000000000000000000000000000000000000000000000000000000000000000000000000000000000000000000000000000000000000
310
00000000000000000000000000000000000000000000000000000000000000000000000000000000000000000000000000000000000000000000000000000000000000000000000000000000000000000000000000000000000000000000000000000000000000000000000000000000000000000000000000000000000000
310
00000000000000000000000000000000000000000000000000000000000000000000000000000000000000000000000000000000000000000000000000000000000000000000000000000000000000000000000000000000000000000000000000000000000000000000000000000000000000000000000000000000000000
310
00000000000000000000000000000000000000000000000000000000000000000000000000000000000000000000000000000000000000000000000000000000000000000000000000000000000000000000000000000000000000000000000000000000000000000000000000000000000000000000000000000000000000
310
00000000000000000000000000000000000000000000000000000000000000000000000000000000000000000000000000000000000000000000000000000000000000000000000000000000000000000000000000000000000000000000000000000000000000000000000000000000000000000000000000000000000000
310
00000000000000000000000000000000000000000000000000000000000000000000000000000000000000000000000000000000000000000000000000000000000000000000000000000000000000000000000000000000000000000000000000000000000000000000000000000000000000000000000000000000000000
310
00000000000000000000000000000000000000000000000000000000000000000000000000000000000000000000000000000000000000000000000000000000000000000000000000000000000000000000000000000000000000000000000000000000000000000000000000000000000000000000000000000000000000
310
00000000000000000000000000000000000000000000000000000000000000000000000000000000000000000000000000000000000000000000000000000000000000000000000000000000000000000000000000000000000000000000000000000000000000000000000000000000000000000000000000000000000000
310
00000000000000000000000000000000000000000000000000000000000000000000000000000000000000000000000000000000000000000000000000000000000000000000000000000000000000000000000000000000000000000000000000000000000000000000000000000000000000000000000000000000000000
310
00000000000000000000000000000000000000000000000000000000000000000000000000000000000000000000000000000000000000000000000000000000000000000000000000000000000000000000000000000000000000000000000000000000000000000000000000000000000000000000000000000000000000
310
00000000000000000000000000000000000000000000000000000000000000000000000000000000000000000000000000000000000000000000000000000000000000000000000000000000000000000000000000000000000000000000000000000000000000000000000000000000000000000000000000000000000000
310
00000000000000000000000000000000000000000000000000000000000000000000000000000000000000000000000000000000000000000000000000000000000000000000000000000000000000000000000000000000000000000000000000000000000000000000000000000000000000000000000000000000000000
310
00000000000000000000000000000000000000000000000000000000000000000000000000000000000000000000000000000000000000000000000000000000000000000000000000000000000000000000000000000000000000000000000000000000000000000000000000000000000000000000000000000000000000
310
00000000000000000000000000000000000000000000000000000000000000000000000000000000000000000000000000000000000000000000000000000000000000000000000000000000000000000000000000000000000000000000000000000000000000000000000000000000000000000000000000000000000000
310
00000000000000000000000000000000000000000000000000000000000000000000000000000000000000000000000000000000000000000000000000000000000000000000000000000000000000000000000000000000000000000000000000000000000000000000000000000000000000000000000000000000000000
310
00000000000000000000000000000000000000000000000000000000000000000000000000000000000000000000000000000000000000000000000000000000000000000000000000000000000000000000000000000000000000000000000000000000000000000000000000000000000000000000000000000000000000
310
00000000000000000000000000000000000000000000000000000000000000000000000000000000000000000000000000000000000000000000000000000000000000000000000000000000000000000000000000000000000000000000000000000000000000000000000000000000000000000000000000000000000000
310
00000000000000000000000000000000000000000000000000000000000000000000000000000000000000000000000000000000000000000000000000000000000000000000000000000000000000000000000000000000000000000000000000000000000000000000000000000000000000000000000000000000000000
310
00000000000000000000000000000000000000000000000000000000000000000000000000000000000000000000000000000000000000000000000000000000000000000000000000000000000000000000000000000000000000000000000000000000000000000000000000000000000000000000000000000000000000
310
00000000000000000000000000000000000000000000000000000000000000000000000000000000000000000000000000000000000000000000000000000000000000000000000000000000000000000000000000000000000000000000000000000000000000000000000000000000000000000000000000000000000000
310
00000000000000000000000000000000000000000000000000000000000000000000000000000000000000000000000000000000000000000000000000000000000000000000000000000000000000000000000000000000000000000000000000000000000000000000000000000000000000000000000000000000000000
310
00000000000000000000000000000000000000000000000000000000000000000000000000000000000000000000000000000000000000000000000000000000000000000000000000000000000000000000000000000000000000000000000000000000000000000000000000000000000000000000000000000000000000
310
00000000000000000000000000000000000000000000000000000000000000000000000000000000000000000000000000000000000000000000000000000000000000000000000000000000000000000000000000000000000000000000000000000000000000000000000000000000000000000000000000000000000000
310
00000000000000000000000000000000000000000000000000000000000000000000000000000000000000000000000000000000000000000000000000000000000000000000000000000000000000000000000000000000000000000000000000000000000000000000000000000000000000000000000000000000000000
310
00000000000000000000000000000000000000000000000000000000000000000000000000000000000000000000000000000000000000000000000000000000000000000000000000000000000000000000000000000000000000000000000000000000000000000000000000000000000000000000000000000000000000
310
00000000000000000000000000000000000000000000000000000000000000000000000000000000000000000000000000000000000000000000000000000000000000000000000000000000000000000000000000000000000000000000000000000000000000000000000000000000000000000000000000000000000000
310
00000000000000000000000000000000000000000000000000000000000000000000000000000000000000000000000000000000000000000000000000000000000000000000000000000000000000000000000000000000000000000000000000000000000000000000000000000000000000000000000000000000000000
310
00000000000000000000000000000000000000000000000000000000000000000000000000000000000000000000000000000000000000000000000000000000000000000000000000000000000000000000000000000000000000000000000000000000000000000000000000000000000000000000000000000000000000
310
00000000000000000000000000000000000000000000000000000000000000000000000000000000000000000000000000000000000000000000000000000000000000000000000000000000000000000000000000000000000000000000000000000000000000000000000000000000000000000000000000000000000000
310
00000000000000000000000000000000000000000000000000000000000000000000000000000000000000000000000000000000000000000000000000000000000000000000000000000000000000000000000000000000000000000000000000000000000000000000000000000000000000000000000000000000000000
310
00000000000000000000000000000000000000000000000000000000000000000000000000000000000000000000000000000000000000000000000000000000000000000000000000000000000000000000000000000000000000000000000000000000000000000000000000000000000000000000000000000000000000
310
00000000000000000000000000000000000000000000000000000000000000000000000000000000000000000000000000000000000000000000000000000000000000000000000000000000000000000000000000000000000000000000000000000000000000000000000000000000000000000000000000000000000000
310
0000000000000000000000000000000000000000000000000000000000
  0
XRECORD
  5
672
102
{ACAD_REACTORS
330
670
102
}
330
670
100
AcDbXrecord
280
     1
270
     1
271
     1
  0
XRECORD
  5
671
102
{ACAD_REACTORS
330
670
102
}
330
670
100
AcDbXrecord
280
     1
270
     1
271
     1
  0
XRECORD
  5
675
102
{ACAD_REACTORS
330
670
102
}
330
670
100
AcDbXrecord
280
     1
270
     1
271
     1
  0
XRECORD
  5
674
102
{ACAD_REACTORS
330
670
102
}
330
670
100
AcDbXrecord
280
     1
270
     1
271
     1
  0
XRECORD
  5
676
102
{ACAD_REACTORS
330
670
102
}
330
670
100
AcDbXrecord
280
     1
270
     1
271
     1
  0
XRECORD
  5
673
102
{ACAD_REACTORS
330
670
102
}
330
670
100
AcDbXrecord
280
     1
270
     1
271
     1
  0
XRECORD
  5
66A
102
{ACAD_REACTORS
330
668
102
}
330
668
100
AcDbXrecord
280
     1
270
     1
271
     1
  0
XRECORD
  5
669
102
{ACAD_REACTORS
330
668
102
}
330
668
100
AcDbXrecord
280
     1
270
     1
271
     1
  0
XRECORD
  5
66D
102
{ACAD_REACTORS
330
668
102
}
330
668
100
AcDbXrecord
280
     1
270
     1
271
     1
  0
XRECORD
  5
66C
102
{ACAD_REACTORS
330
668
102
}
330
668
100
AcDbXrecord
280
     1
270
     1
271
     1
  0
XRECORD
  5
66E
102
{ACAD_REACTORS
330
668
102
}
330
668
100
AcDbXrecord
280
     1
270
     1
271
     1
  0
XRECORD
  5
66B
102
{ACAD_REACTORS
330
668
102
}
330
668
100
AcDbXrecord
280
     1
270
     1
271
     1
  0
XRECORD
  5
67A
102
{ACAD_REACTORS
330
678
102
}
330
678
100
AcDbXrecord
280
     1
270
     1
271
     1
  0
XRECORD
  5
679
102
{ACAD_REACTORS
330
678
102
}
330
678
100
AcDbXrecord
280
     1
270
     1
271
     1
  0
XRECORD
  5
67D
102
{ACAD_REACTORS
330
678
102
}
330
678
100
AcDbXrecord
280
     1
270
     1
271
     1
  0
XRECORD
  5
67C
102
{ACAD_REACTORS
330
678
102
}
330
678
100
AcDbXrecord
280
     1
270
     1
271
     1
  0
XRECORD
  5
67E
102
{ACAD_REACTORS
330
678
102
}
330
678
100
AcDbXrecord
280
     1
270
     1
271
     1
  0
XRECORD
  5
67B
102
{ACAD_REACTORS
330
678
102
}
330
678
100
AcDbXrecord
280
     1
270
     1
271
     1
  0
XRECORD
  5
932
102
{ACAD_REACTORS
330
931
102
}
330
931
100
AcDbXrecord
280
     1
102
ACAD_ROUNDTRIP_2012_MLEADER_STYLE
298
     1
  0
CELLSTYLEMAP
  5
930
102
{ACAD_REACTORS
330
92F
102
}
330
92F
100
AcDbCellStyleMap
 90
        3
300
CELLSTYLE
  1
TABLEFORMAT_BEGIN
 90
        5
170
     1
 91
        0
 92
    32768
 62
   257
 93
        1
300
CONTENTFORMAT
  1
CONTENTFORMAT_BEGIN
 90
        0
 91
        0
 92
      512
 93
        0
300

 40
0.0
140
1.0
 94
        5
 62
     0
340
11
144
6.0
309
CONTENTFORMAT_END
171
     1
301
MARGIN
  1
CELLMARGIN_BEGIN
 40
1.5
 40
1.5
 40
1.5
 40
1.5
 40
4.5
 40
4.5
309
CELLMARGIN_END
 94
        6
 95
        1
302
GRIDFORMAT
  1
GRIDFORMAT_BEGIN
 90
        0
 91
        1
 62
     0
 92
       -2
340
0
 93
        0
 40
1.125
309
GRIDFORMAT_END
 95
        2
302
GRIDFORMAT
  1
GRIDFORMAT_BEGIN
 90
        0
 91
        1
 62
     0
 92
       -2
340
0
 93
        0
 40
1.125
309
GRIDFORMAT_END
 95
        4
302
GRIDFORMAT
  1
GRIDFORMAT_BEGIN
 90
        0
 91
        1
 62
     0
 92
       -2
340
0
 93
        0
 40
1.125
309
GRIDFORMAT_END
 95
        8
302
GRIDFORMAT
  1
GRIDFORMAT_BEGIN
 90
        0
 91
        1
 62
     0
 92
       -2
340
0
 93
        0
 40
1.125
309
GRIDFORMAT_END
 95
       16
302
GRIDFORMAT
  1
GRIDFORMAT_BEGIN
 90
        0
 91
        1
 62
     0
 92
       -2
340
0
 93
        0
 40
1.125
309
GRIDFORMAT_END
 95
       32
302
GRIDFORMAT
  1
GRIDFORMAT_BEGIN
 90
        0
 91
        1
 62
     0
 92
       -2
340
0
 93
        0
 40
1.125
309
GRIDFORMAT_END
309
TABLEFORMAT_END
  1
CELLSTYLE_BEGIN
 90
        1
 91
        1
300
_TITLE
309
CELLSTYLE_END
300
CELLSTYLE
  1
TABLEFORMAT_BEGIN
 90
        5
170
     1
 91
        0
 92
        0
 62
   257
 93
        1
300
CONTENTFORMAT
  1
CONTENTFORMAT_BEGIN
 90
        0
 91
        0
 92
      512
 93
        0
300

 40
0.0
140
1.0
 94
        5
 62
     0
340
11
144
4.5
309
CONTENTFORMAT_END
171
     1
301
MARGIN
  1
CELLMARGIN_BEGIN
 40
1.5
 40
1.5
 40
1.5
 40
1.5
 40
4.5
 40
4.5
309
CELLMARGIN_END
 94
        6
 95
        1
302
GRIDFORMAT
  1
GRIDFORMAT_BEGIN
 90
        0
 91
        1
 62
     0
 92
       -2
340
0
 93
        0
 40
1.125
309
GRIDFORMAT_END
 95
        2
302
GRIDFORMAT
  1
GRIDFORMAT_BEGIN
 90
        0
 91
        1
 62
     0
 92
       -2
340
0
 93
        0
 40
1.125
309
GRIDFORMAT_END
 95
        4
302
GRIDFORMAT
  1
GRIDFORMAT_BEGIN
 90
        0
 91
        1
 62
     0
 92
       -2
340
0
 93
        0
 40
1.125
309
GRIDFORMAT_END
 95
        8
302
GRIDFORMAT
  1
GRIDFORMAT_BEGIN
 90
        0
 91
        1
 62
     0
 92
       -2
340
0
 93
        0
 40
1.125
309
GRIDFORMAT_END
 95
       16
302
GRIDFORMAT
  1
GRIDFORMAT_BEGIN
 90
        0
 91
        1
 62
     0
 92
       -2
340
0
 93
        0
 40
1.125
309
GRIDFORMAT_END
 95
       32
302
GRIDFORMAT
  1
GRIDFORMAT_BEGIN
 90
        0
 91
        1
 62
     0
 92
       -2
340
0
 93
        0
 40
1.125
309
GRIDFORMAT_END
309
TABLEFORMAT_END
  1
CELLSTYLE_BEGIN
 90
        2
 91
        1
300
_HEADER
309
CELLSTYLE_END
300
CELLSTYLE
  1
TABLEFORMAT_BEGIN
 90
        5
170
     1
 91
        0
 92
        0
 62
   257
 93
        1
300
CONTENTFORMAT
  1
CONTENTFORMAT_BEGIN
 90
        0
 91
        0
 92
      512
 93
        0
300

 40
0.0
140
1.0
 94
        2
 62
     0
340
11
144
4.5
309
CONTENTFORMAT_END
171
     1
301
MARGIN
  1
CELLMARGIN_BEGIN
 40
1.5
 40
1.5
 40
1.5
 40
1.5
 40
4.5
 40
4.5
309
CELLMARGIN_END
 94
        6
 95
        1
302
GRIDFORMAT
  1
GRIDFORMAT_BEGIN
 90
        0
 91
        1
 62
     0
 92
       -2
340
0
 93
        0
 40
1.125
309
GRIDFORMAT_END
 95
        2
302
GRIDFORMAT
  1
GRIDFORMAT_BEGIN
 90
        0
 91
        1
 62
     0
 92
       -2
340
0
 93
        0
 40
1.125
309
GRIDFORMAT_END
 95
        4
302
GRIDFORMAT
  1
GRIDFORMAT_BEGIN
 90
        0
 91
        1
 62
     0
 92
       -2
340
0
 93
        0
 40
1.125
309
GRIDFORMAT_END
 95
        8
302
GRIDFORMAT
  1
GRIDFORMAT_BEGIN
 90
        0
 91
        1
 62
     0
 92
       -2
340
0
 93
        0
 40
1.125
309
GRIDFORMAT_END
 95
       16
302
GRIDFORMAT
  1
GRIDFORMAT_BEGIN
 90
        0
 91
        1
 62
     0
 92
       -2
340
0
 93
        0
 40
1.125
309
GRIDFORMAT_END
 95
       32
302
GRIDFORMAT
  1
GRIDFORMAT_BEGIN
 90
        0
 91
        1
 62
     0
 92
       -2
340
0
 93
        0
 40
1.125
309
GRIDFORMAT_END
309
TABLEFORMAT_END
  1
CELLSTYLE_BEGIN
 90
        3
 91
        2
300
_DATA
309
CELLSTYLE_END
  0
ENDSEC
  0
EOF
